<?xml version="1.0" standalone="no"?>
<!DOCTYPE svg PUBLIC "-//W3C//DTD SVG 1.1//EN" "http://www.w3.org/Graphics/SVG/1.1/DTD/svg11.dtd">
<svg xmlns="http://www.w3.org/2000/svg">
<defs >
<font id="Prompt" horiz-adv-x="604" ><font-face
    font-family="Prompt Bold"
    units-per-em="1000"
    panose-1="0 0 8 0 0 0 0 0 0 0"
    ascent="1090"
    descent="-422"
    alphabetic="0" />
<glyph unicode=" " glyph-name="space" horiz-adv-x="340" />
<glyph unicode="!" glyph-name="exclam" horiz-adv-x="237" d="M129 699H305L205 230H29L129 699ZM31 -15T10 5T-11 57Q-11 88 5 113T48 154T104 169Q138 169 159 149T180 97Q180 67 164 41T120 0T65 -15Q31 -15 10 5Z" />
<glyph unicode="&quot;" glyph-name="quotedbl" horiz-adv-x="361" d="M123 699H252L209 494H80L123 699ZM305 699H434L391 494H262L305 699Z" />
<glyph unicode="#" glyph-name="numbersign" horiz-adv-x="776" d="M83 138H4L33 275H150L210 396H102L131 532H277L360 699H520L437 532H577L660 699H821L738 532H814L785 396H671L611 275H716L687 138H544L476 0H315L383 138H243L175 0H15L83 138ZM450 275L510
396H370L310 275H450Z" />
<glyph unicode="$" glyph-name="dollar" horiz-adv-x="569" d="M149 -12Q97 -7 53 4T-19 32L15 192Q63 164 118 150T227 136Q321 136 333 193Q334 198 334 207Q334 231 312 246T225 291Q151 325 116 366T81 463Q81 481 86 508Q101 579 158 631T301 703L322 802H483L463
710Q535 703 596 672L563 516Q486 562 396 562Q351 562 321 547T284 503Q283 499 283 492Q283 469 306 454T395 410Q474 374 507 339T541 248Q541 228 534 191Q517 113 461 63T311 -6L291 -103H130L149 -12Z" />
<glyph unicode="%" glyph-name="percent" horiz-adv-x="893" d="M165 347T124 387T83 491Q83 511 87 530Q98 581 130 623T209 689T309 714Q375 714 416 673T458 569Q458 547 454 530Q443 479 412 437T333 371T231 347Q165 347 124 387ZM649 699H828L293 0H114L649
699ZM290 455T317 481T345 544Q345 570 330 585T285 601Q250 601 223 573T196 508Q196 484 211 470T254 455Q290 455 317 481ZM564 -15T523 25T482 129Q482 149 486 168Q497 219 529 261T608 327T708 352Q774 352 815 311T857 207Q857 185 853 168Q842 117 811
75T732 9T630 -15Q564 -15 523 25ZM689 93T716 120T744 183Q744 208 729 223T684 239Q648 239 622 212T595 146Q595 122 609 108T653 93Q689 93 716 120Z" />
<glyph unicode="&amp;" glyph-name="ampersand" horiz-adv-x="794" d="M126 -15T67 25T8 140Q8 157 13 182Q39 307 187 382Q164 412 152 439T140 499Q140 520 144 539Q161 616 229 665T398 714Q482 714 528 676T575 575Q575 555 571 539Q559 482 526 444T425 365L524
247Q550 283 569 367H719Q702 287 680 237T618 135L729 0H514L472 48Q426 15 367 0T228 -15Q126 -15 67 25ZM377 467T396 485T421 527Q423 537 423 542Q423 563 409 575T371 587Q343 587 323 572T297 527Q295 517 295 514Q295 498 304 484T336 444Q377 467 396
485ZM344 108T389 146L281 277Q238 258 216 236T186 182Q184 170 184 165Q184 136 207 122T270 108Q344 108 389 146Z" />
<glyph unicode="&apos;" glyph-name="quotesingle" horiz-adv-x="179" d="M123 699H252L209 494H80L123 699Z" />
<glyph unicode="(" glyph-name="parenleft" horiz-adv-x="363" d="M14 -54T14 106Q14 183 32 270Q86 529 276 714H459Q266 519 213 270Q196 187 196 115Q196 -41 271 -174H88Q14 -54 14 106Z" />
<glyph unicode=")" glyph-name="parenright" horiz-adv-x="363" d="M111 21T164 270Q181 353 181 425Q181 581 106 714H289Q363 594 363 433Q363 357 345 270Q289 9 101 -174H-81Q111 21 164 270Z" />
<glyph unicode="*" glyph-name="asterisk" horiz-adv-x="440" d="M101 418L195 517L92 556L151 642L240 608L259 699H377L358 608L461 643L482 551L363 513L414 414L316 354L270 444L186 353L101 418Z" />
<glyph unicode="+" glyph-name="plus" horiz-adv-x="406" d="M133 237H25L53 369H161L185 481H325L301 369H409L381 237H273L249 125H109L133 237Z" />
<glyph unicode="," glyph-name="comma" horiz-adv-x="315" d="M71 62H253L103 -149H-56L71 62Z" />
<glyph unicode="-" glyph-name="hyphen" horiz-adv-x="406" d="M54 373H410L380 233H24L54 373Z" />
<glyph unicode="." glyph-name="period" horiz-adv-x="177" d="M15 0T1 13T-14 48Q-14 79 10 103T64 127Q88 127 102 113T116 75Q116 45 92 23T38 0Q15 0 1 13Z" />
<glyph unicode="/" glyph-name="slash" horiz-adv-x="515" d="M411 714H591L155 0H-25L411 714Z" />
<glyph unicode="0" glyph-name="zero" horiz-adv-x="694" d="M217 -15T160 16T70 106T38 248Q38 300 49 349Q73 462 129 544T267 670T448 714Q565 714 634 644T704 451Q704 400 693 349Q669 236 612 154T472 29T293 -15Q217 -15 160 16ZM396 151T443 203T511 347Q521
391 521 432Q521 488 496 517T413 547Q345 547 297 494T229 347Q219 297 219 265Q219 151 329 151Q396 151 443 203Z" />
<glyph unicode="1" glyph-name="one" horiz-adv-x="389" d="M223 502L59 399L96 573L295 699H442L294 0H117L223 502Z" />
<glyph unicode="2" glyph-name="two" horiz-adv-x="582" d="M-4 101L128 202Q140 212 185 244Q257 298 294 328T359 391T393 454Q397 476 397 485Q397 514 378 530T308 547Q257 547 204 529T101 479L137 648Q189 679 252 696T384 714Q448 714 495 692T568 629T594
536Q594 517 589 490Q572 413 525 356T383 226L276 145H537L507 0H-25L-4 101Z" />
<glyph unicode="3" glyph-name="three" horiz-adv-x="574" d="M135 -15T77 -4T-19 29L10 169Q102 123 205 123Q344 123 361 206Q363 220 363 224Q363 256 333 270T238 285H141L170 420H263Q322 420 358 440T404 499Q406 513 406 519Q406 548 383 562T309 576Q200
576 99 520L129 663Q180 687 240 700T363 714Q480 714 536 674T592 559Q592 535 586 506Q577 461 547 421T469 353Q545 316 545 238Q545 222 540 197Q519 94 443 40T201 -15Q135 -15 77 -4Z" />
<glyph unicode="4" glyph-name="four" horiz-adv-x="615" d="M306 144H-15L8 254L434 699H609L521 284H620L590 144H491L461 0H276L306 144ZM363 284L405 484L216 284H363Z" />
<glyph unicode="5" glyph-name="five" horiz-adv-x="577" d="M127 -15T71 -2T-18 34L15 189Q54 160 106 144T209 127Q279 127 319 154T369 228Q371 235 371 249Q371 285 342 304T258 323Q223 323 184 317T113 298L53 337L158 699H606L575 554H298L266 444Q314
456 366 456Q454 456 506 413T558 291Q558 270 551 233Q499 -15 187 -15Q127 -15 71 -2Z" />
<glyph unicode="6" glyph-name="six" horiz-adv-x="628" d="M197 -15T144 14T61 97T30 224Q30 263 39 305Q67 435 129 526T281 666T481 714Q554 714 604 696L573 546Q533 570 465 570Q390 570 335 530T251 410Q281 436 328 451T425 466Q506 466 557 420T609 293Q609
263 602 234Q587 163 543 107T427 18T263 -15Q197 -15 144 14ZM339 122T375 152T421 225Q425 247 425 255Q425 289 404 309T339 329Q307 329 278 312T231 265T212 203Q212 168 235 145T295 122Q339 122 375 152Z" />
<glyph unicode="7" glyph-name="seven" horiz-adv-x="534" d="M394 554H82L113 699H617L592 581L204 0H24L394 554Z" />
<glyph unicode="8" glyph-name="eight" horiz-adv-x="623" d="M150 -15T81 30T12 158Q12 175 17 200Q29 259 65 300T152 362Q128 381 115 409T102 471Q102 492 106 511Q127 607 209 660T413 714Q516 714 577 672T638 554Q638 536 633 511Q623 464 595 426T524
362Q558 347 576 317T595 244Q595 227 590 200Q568 97 479 41T258 -15Q150 -15 81 30ZM393 405T425 436T458 513Q458 543 440 559T384 576Q339 576 307 546T275 470Q275 441 295 423T348 405Q393 405 425 436ZM333 122T367 148T411 218Q413 225 413 239Q413 273
390 293T328 314Q276 314 239 279T202 190Q202 122 287 122Q333 122 367 148Z" />
<glyph unicode="9" glyph-name="nine" horiz-adv-x="628" d="M120 -15T71 2L103 152Q144 128 211 128Q287 128 344 168T428 287Q398 262 353 248T259 233Q175 233 122 281T68 412Q68 438 74 468Q89 539 133 594T249 682T412 714Q531 714 589 658T648 497Q648 450
636 393Q594 196 477 91T194 -15Q120 -15 71 2ZM382 369T418 398T465 472Q467 480 467 494Q467 530 444 553T383 576Q351 576 322 559T275 512T256 450Q256 415 279 392T339 369Q382 369 418 398Z" />
<glyph unicode=":" glyph-name="colon" horiz-adv-x="222" d="M100 327T80 347T60 396Q60 422 75 446T116 484T167 499Q197 499 216 480T236 431Q236 404 221 380T181 342T130 327Q100 327 80 347ZM32 9T13 28T-7 77Q-7 104 8 128T48 166T99 181Q130 181 149 162T169
112Q169 86 154 62T113 24T62 9Q32 9 13 28Z" />
<glyph unicode=";" glyph-name="semicolon" horiz-adv-x="315" d="M179 327T159 347T139 396Q139 422 154 446T195 484T246 499Q276 499 295 480T315 431Q315 404 300 380T260 342T209 327Q179 327 159 347ZM71 62H253L103 -149H-56L71 62Z" />
<glyph unicode="&lt;" glyph-name="less" horiz-adv-x="530" d="M31 264L57 387L587 622L548 432L276 318L499 204L460 28L31 264Z" />
<glyph unicode="=" glyph-name="equal" horiz-adv-x="513" d="M84 517H547L518 379H55L84 517ZM36 291H499L470 152H7L36 291Z" />
<glyph unicode="&gt;" glyph-name="greater" horiz-adv-x="530" d="M19 218L292 332L68 446L107 622L537 387L511 264L-20 28L19 218Z" />
<glyph unicode="?" glyph-name="question" horiz-adv-x="523" d="M136 251Q157 353 251 410L280 427Q322 452 340 467T363 506Q364 510 364 518Q364 564 278 564Q233 564 183 552T85 518L117 672Q219 714 332 714Q440 714 501 674T562 560Q562 539 558 520Q548
469 518 438T425 367Q382 340 362 326T330 293T311 249L307 230H131L136 251ZM132 -15T112 5T91 57Q91 88 107 113T149 154T205 169Q239 169 260 149T282 96Q282 66 266 41T222 0T166 -15Q132 -15 112 5Z" />
<glyph unicode="@" glyph-name="at" horiz-adv-x="902" d="M273 -76T194 -44T70 51T26 202Q26 237 36 287Q62 412 137 509T325 660T578 714Q680 714 755 683T872 592T913 448Q913 410 904 366Q879 247 813 177T649 106Q615 106 588 121T554 163Q525 136 484 121T399
106Q334 106 288 141T241 244Q241 261 246 286Q270 394 345 461T538 528Q583 528 628 517T702 488L640 256Q636 238 636 232Q636 202 665 202Q698 202 723 246T765 366Q775 414 775 445Q775 522 723 557T552 593Q462 593 384 557T250 452T175 287Q166 244 166 208Q166
124 223 83T405 42Q507 42 587 67L562 -48Q479 -76 380 -76Q273 -76 194 -44ZM468 216T489 234T518 282L553 409Q539 416 511 416Q470 416 437 383T392 296Q387 273 387 259Q387 237 398 227T434 216Q468 216 489 234Z" />
<glyph unicode="A" glyph-name="A" horiz-adv-x="783" d="M403 699H577L708 0H532L506 144H248L162 0H-25L403 699ZM491 280L456 515L320 280H491Z" />
<glyph unicode="B" glyph-name="B" horiz-adv-x="664" d="M143 699H497Q577 699 628 660T679 550Q679 533 674 506Q665 462 637 425T567 364Q603 348 621 322T639 257Q639 236 633 209Q612 111 541 56T366 0H-5L143 699ZM399 422Q476 422 493 495Q496 509 496
519Q496 546 479 556T427 567H292L261 422H399ZM349 132Q394 132 419 149T454 209Q457 223 457 234Q457 264 438 277T378 291H233L200 132H349Z" />
<glyph unicode="C" glyph-name="C" horiz-adv-x="682" d="M264 -15T193 19T81 117T40 268Q40 307 49 349Q73 461 135 543T292 670T507 714Q582 714 638 699T737 652L701 484Q665 519 613 535T489 551Q386 551 319 497T231 349Q222 309 222 275Q222 211 263 179T403
146Q475 146 535 163T653 217L617 50Q509 -15 352 -15Q264 -15 193 19Z" />
<glyph unicode="D" glyph-name="D" horiz-adv-x="701" d="M143 699H394Q487 699 558 665T668 568T708 423Q708 387 701 353Q666 177 552 89T258 0H-5L143 699ZM287 149Q378 149 438 203T519 353Q527 393 527 422Q527 483 493 516T378 550H288L203 149H287Z" />
<glyph unicode="E" glyph-name="E" horiz-adv-x="566" d="M143 699H639L607 550H288L261 419H494L464 280H231L203 149H522L491 0H-5L143 699Z" />
<glyph unicode="F" glyph-name="F" horiz-adv-x="546" d="M143 699H639L607 550H288L261 419H494L464 280H231L172 0H-5L143 699Z" />
<glyph unicode="G" glyph-name="G" horiz-adv-x="695" d="M261 -15T191 19T80 116T40 265Q40 304 49 349Q73 460 137 542T297 669T507 714Q583 714 638 700T737 653L702 485Q666 520 614 535T489 551Q385 551 318 498T231 349Q223 311 223 282Q223 144 393 144Q446
144 486 162L510 274H403L429 398H704L630 50Q509 -15 352 -15Q261 -15 191 19Z" />
<glyph unicode="H" glyph-name="H" horiz-adv-x="718" d="M143 699H320L263 429H537L594 699H771L623 0H446L505 282H231L172 0H-5L143 699Z" />
<glyph unicode="I" glyph-name="I" horiz-adv-x="267" d="M143 699H320L172 0H-5L143 699Z" />
<glyph unicode="J" glyph-name="J" horiz-adv-x="388" d="M48 -15T10 -8T-44 8L-11 164Q3 157 25 153T72 149Q119 149 139 167T169 229L269 699H446L342 209Q294 -15 82 -15Q48 -15 10 -8Z" />
<glyph unicode="K" glyph-name="K" horiz-adv-x="717" d="M143 699H320L258 409L556 699H771L416 354L637 0H432L237 309L172 0H-5L143 699Z" />
<glyph unicode="L" glyph-name="L" horiz-adv-x="531" d="M143 699H320L203 149H507L476 0H-5L143 699Z" />
<glyph unicode="M" glyph-name="M" horiz-adv-x="834" d="M143 699H308L418 266L713 699H887L739 0H574L648 351L407 0H327L235 351L161 0H-5L143 699Z" />
<glyph unicode="N" glyph-name="N" horiz-adv-x="699" d="M143 699H323L492 283L580 699H752L604 0H435L265 417L177 0H-5L143 699Z" />
<glyph unicode="O" glyph-name="O" horiz-adv-x="800" d="M256 -15T187 19T79 117T40 264Q40 304 49 349Q72 456 138 539T300 668T502 714Q593 714 662 680T770 582T808 433Q808 393 799 349Q776 242 709 160T547 31T347 -15Q256 -15 187 19ZM436 151T485 175T569
244T618 349Q624 379 624 406Q624 473 584 510T467 547Q412 547 363 523T279 454T231 349Q224 320 224 290Q224 223 264 187T383 151Q436 151 485 175Z" />
<glyph unicode="P" glyph-name="P" horiz-adv-x="636" d="M143 699H451Q550 699 611 649T673 510Q673 485 667 456Q642 336 561 273T347 209H216L172 0H-5L143 699ZM351 358Q411 358 442 379T485 456Q489 478 489 485Q489 521 463 535T391 550H288L248 358H351Z" />
<glyph unicode="Q" glyph-name="Q" horiz-adv-x="803" d="M270 0T195 32T80 124T40 268Q40 307 49 350Q72 458 136 540T296 668T502 714Q593 714 662 680T770 582T808 434Q808 394 799 350Q786 290 745 232T655 138H772L743 0H373Q270 0 195 32ZM436 151T485 175T569
244T618 349Q625 386 625 407Q625 474 585 510T467 547Q412 547 363 523T279 454T231 349Q224 320 224 290Q224 223 264 187T383 151Q436 151 485 175Z" />
<glyph unicode="R" glyph-name="R" horiz-adv-x="646" d="M143 699H457Q557 699 615 649T674 514Q674 488 668 459Q652 381 607 326T493 244L565 0H383L318 219H218L172 0H-5L143 699ZM356 368Q409 368 442 388T486 459Q490 481 490 488Q490 523 467 536T398 550H288L250
368H356Z" />
<glyph unicode="S" glyph-name="S" horiz-adv-x="569" d="M143 -15T81 -3T-19 32L15 191Q63 163 118 149T227 135Q281 135 310 153T340 205Q340 230 316 247T226 294Q151 328 116 368T81 463Q81 481 86 508Q106 601 188 657T395 714Q459 714 507 704T596 672L563
517Q486 563 396 563Q348 563 317 548T278 503Q277 499 277 492Q277 469 302 452T394 407Q472 372 506 335T540 243Q540 220 534 191Q514 92 436 39T209 -15Q143 -15 81 -3Z" />
<glyph unicode="T" glyph-name="T" horiz-adv-x="592" d="M273 550H76L108 699H680L648 550H450L334 0H157L273 550Z" />
<glyph unicode="U" glyph-name="U" horiz-adv-x="715" d="M179 -15T111 48T43 216Q43 253 52 293L138 699H315L228 291Q221 254 221 235Q221 191 248 170T339 149Q411 149 452 184T509 291L596 699H773L687 293Q621 -15 304 -15Q179 -15 111 48Z" />
<glyph unicode="V" glyph-name="V" horiz-adv-x="783" d="M123 699H306L385 234L662 699H856L429 0H255L123 699Z" />
<glyph unicode="W" glyph-name="W" horiz-adv-x="992" d="M123 699H305L334 285L535 699H661L679 284L883 699H1065L724 0H567L538 406L338 0H168L123 699Z" />
<glyph unicode="X" glyph-name="X" horiz-adv-x="759" d="M302 350L124 699H327L434 490L629 699H832L505 350L684 0H481L374 209L178 0H-25L302 350Z" />
<glyph unicode="Y" glyph-name="Y" horiz-adv-x="750" d="M289 266L123 699H306L406 428L629 699H823L466 266L410 0H233L289 266Z" />
<glyph unicode="Z" glyph-name="Z" horiz-adv-x="611" d="M0 120L409 550H99L131 699H662L636 578L229 149H567L536 0H-25L0 120Z" />
<glyph unicode="[" glyph-name="bracketleft" horiz-adv-x="337" d="M142 787H439L407 638H287L163 53H283L251 -96H-46L142 787Z" />
<glyph unicode="\" glyph-name="backslash" horiz-adv-x="515" d="M126 714H306L440 0H260L126 714Z" />
<glyph unicode="]" glyph-name="bracketright" horiz-adv-x="337" d="M-24 53H96L220 638H100L132 787H429L241 -96H-55L-24 53Z" />
<glyph unicode="^" glyph-name="asciicircum" horiz-adv-x="585" d="M325 719H465L590 380H428L367 558L229 380H55L325 719Z" />
<glyph unicode="_" glyph-name="underscore" horiz-adv-x="479" d="M-25 0H404L373 -145H-55L-25 0Z" />
<glyph unicode="`" glyph-name="grave" horiz-adv-x="304" d="M133 745H318L349 567H186L133 745Z" />
<glyph unicode="a" glyph-name="a" horiz-adv-x="661" d="M132 -15T76 37T19 178Q19 202 26 239Q42 314 86 372T195 463T336 495Q386 495 425 481T488 441L497 480H673L571 0H401L411 48Q330 -15 227 -15Q132 -15 76 37ZM342 121T378 141T436 197L454 282Q448
317 421 337T353 358Q299 358 259 326T207 239Q203 222 203 202Q203 121 302 121Q342 121 378 141Z" />
<glyph unicode="b" glyph-name="b" horiz-adv-x="665" d="M229 -15T175 48L165 0H-5L152 739H328L264 441Q298 466 345 480T440 495Q537 495 592 444T647 304Q647 271 640 239Q615 121 536 53T331 -15Q229 -15 175 48ZM368 121T408 152T459 239Q463 256 463 276Q463
358 365 358Q325 358 288 338T230 282L212 197Q220 162 247 142T314 121Q368 121 408 152Z" />
<glyph unicode="c" glyph-name="c" horiz-adv-x="539" d="M148 -15T83 35T18 178Q18 208 25 239Q52 363 141 429T367 495Q427 495 475 484T553 451L524 314Q498 336 459 347T373 358Q309 358 264 329T206 239Q202 222 202 203Q202 160 231 141T321 121Q417 121
499 167L470 31Q384 -15 257 -15Q148 -15 83 35Z" />
<glyph unicode="d" glyph-name="d" horiz-adv-x="665" d="M132 -15T75 37T18 178Q18 202 25 239Q41 315 84 373T192 463T335 495Q385 495 424 481T487 441L551 739H727L570 0H400L410 48Q329 -15 226 -15Q132 -15 75 37ZM341 121T377 141T435 197L453 282Q447
317 420 337T352 358Q298 358 258 326T206 239Q202 222 202 203Q202 121 301 121Q341 121 377 141Z" />
<glyph unicode="e" glyph-name="e" horiz-adv-x="600" d="M157 -15T88 36T19 181Q19 208 25 238Q51 359 134 427T358 495Q427 495 478 469T556 398T583 297Q583 273 577 246L563 181H180Q183 105 323 105Q370 105 421 113T511 135L487 19Q447 4 389 -5T273 -15Q157
-15 88 36ZM420 291Q421 297 421 307Q421 340 400 357T329 374Q281 374 248 352T203 291H420Z" />
<glyph unicode="f" glyph-name="f" horiz-adv-x="374" d="M98 358H31L57 480H124L136 540Q158 640 226 692T401 744Q455 744 493 726L463 586Q438 600 403 600Q359 600 338 583T309 525L300 480H411L385 358H274L198 0H22L98 358Z" />
<glyph unicode="g" glyph-name="g" horiz-adv-x="665" d="M159 -230T112 -221T34 -197L60 -75Q131 -109 232 -109Q305 -109 344 -79T395 9L402 38Q367 13 322 -1T228 -15Q167 -15 120 9T46 77T19 180Q19 211 26 240Q50 357 132 426T335 495Q437 495 491 432L502
480H672L577 33Q558 -53 518 -110T402 -198T207 -230Q159 -230 112 -221ZM342 121T378 142T436 198L453 282Q446 317 419 337T352 358Q298 358 258 327T207 241Q202 218 202 203Q202 121 301 121Q342 121 378 142Z" />
<glyph unicode="h" glyph-name="h" horiz-adv-x="620" d="M152 739H328L262 431Q301 463 346 479T437 495Q518 495 558 456T598 350Q598 321 593 300L530 0H354L412 277Q415 294 415 306Q415 358 356 358Q322 358 291 342T233 295L171 0H-5L152 739Z" />
<glyph unicode="i" glyph-name="i" horiz-adv-x="278" d="M170 544T149 563T128 615Q128 645 144 671T186 712T243 728Q277 728 298 708T320 655Q320 650 318 636Q309 597 276 571T204 544Q170 544 149 563ZM103 480H279L177 0H1L103 480Z" />
<glyph unicode="j" glyph-name="j" horiz-adv-x="277" d="M169 544T148 563T127 615Q127 645 143 671T185 712T242 728Q276 728 297 708T319 655Q319 650 317 636Q308 597 275 571T203 544Q169 544 148 563ZM-151 -231T-185 -214L-155 -74Q-129 -88 -90 -88Q-20
-88 -4 -15L102 480H278L168 -36Q147 -135 80 -183T-93 -231Q-151 -231 -185 -214Z" />
<glyph unicode="k" glyph-name="k" horiz-adv-x="632" d="M152 739H328L232 287L431 480H633L392 248L557 0H355L215 211L171 0H-5L152 739Z" />
<glyph unicode="l" glyph-name="l" horiz-adv-x="266" d="M152 739H328L171 0H-5L152 739Z" />
<glyph unicode="m" glyph-name="m" horiz-adv-x="874" d="M97 480H260L248 428Q285 460 328 477T415 495Q469 495 498 479T540 431Q577 461 623 478T714 495Q790 495 823 464T857 374Q857 345 849 307L784 0H616L675 282Q679 298 679 314Q679 337 667 347T627
358Q582 358 547 326Q541 292 537 274L479 0H311L372 289Q376 311 376 318Q376 339 365 348T328 358Q276 358 227 301L164 0H-5L97 480Z" />
<glyph unicode="n" glyph-name="n" horiz-adv-x="620" d="M97 480H267L255 427Q294 461 341 478T437 495Q514 495 556 453T598 345Q598 325 593 300L530 0H354L412 277Q416 293 416 309Q416 333 402 345T356 358Q322 358 291 342T233 295L171 0H-5L97 480Z" />
<glyph unicode="o" glyph-name="o" horiz-adv-x="642" d="M151 -15T86 38T20 183Q20 210 26 240Q50 356 141 425T376 495Q493 495 558 441T624 295Q624 269 618 240Q593 124 502 55T267 -15Q151 -15 86 38ZM349 122T387 153T438 240Q442 257 442 277Q442 358 347
358Q294 358 256 327T206 240Q201 217 201 201Q201 122 296 122Q349 122 387 153Z" />
<glyph unicode="p" glyph-name="p" horiz-adv-x="665" d="M97 480H267L256 432Q337 495 440 495Q532 495 589 442T647 300Q647 273 641 241Q615 123 536 54T331 -15Q283 -15 243 -1T179 39L124 -219H-51L97 480ZM368 122T408 154T460 241Q464 260 464 278Q464
318 440 338T365 359Q325 359 289 339T231 283L213 198Q219 163 246 143T314 122Q368 122 408 154Z" />
<glyph unicode="q" glyph-name="q" horiz-adv-x="665" d="M402 39Q368 14 321 0T226 -15Q165 -15 118 9T45 77T19 181Q19 212 26 241Q42 317 85 374T192 463T335 495Q437 495 491 432L502 480H672L523 -219H347L402 39ZM341 122T378 142T436 198L454 283Q446 318
419 338T352 359Q298 359 258 328T207 241Q202 218 202 202Q202 122 301 122Q341 122 378 142Z" />
<glyph unicode="r" glyph-name="r" horiz-adv-x="412" d="M97 480H267L254 420Q289 452 343 469T460 487L431 352Q365 352 310 333T229 276L171 0H-5L97 480Z" />
<glyph unicode="s" glyph-name="s" horiz-adv-x="509" d="M140 -15T80 -4T-13 29L14 158Q50 134 104 119T206 103Q241 103 258 108T279 128Q281 140 272 147T238 163T178 182Q106 205 75 231T43 302Q43 321 47 340Q80 495 310 495Q362 495 417 484T497 455L470
328Q444 348 398 361T308 374Q274 374 254 368T230 345Q227 330 244 322T308 302Q313 301 319 299T333 295Q407 274 437 247T467 177Q467 162 462 135Q447 65 383 25T198 -15Q140 -15 80 -4Z" />
<glyph unicode="t" glyph-name="t" horiz-adv-x="386" d="M126 -15T90 19T53 115Q53 140 59 170L99 358H31L57 480H125L155 624H331L301 480H411L385 358H275L240 194Q236 178 236 162Q236 141 248 131T288 121Q324 121 360 139L332 8Q304 -4 273 -9T199 -15Q126
-15 90 19Z" />
<glyph unicode="u" glyph-name="u" horiz-adv-x="620" d="M106 -15T65 25T23 134Q23 158 29 185L92 480H268L209 205Q206 190 206 176Q206 122 266 122Q300 122 331 138T388 185L451 480H627L525 0H355L366 52Q327 19 280 2T184 -15Q106 -15 65 25Z" />
<glyph unicode="v" glyph-name="v" horiz-adv-x="619" d="M77 480H247L296 201L464 480H646L343 0H176L77 480Z" />
<glyph unicode="w" glyph-name="w" horiz-adv-x="852" d="M77 480H253L271 205L407 480H549L567 205L703 480H879L616 0H463L438 270L299 0H136L77 480Z" />
<glyph unicode="x" glyph-name="x" horiz-adv-x="660" d="M233 248L90 480H288L358 367L476 480H674L431 248L585 0H389L307 130L172 0H-25L233 248Z" />
<glyph unicode="y" glyph-name="y" horiz-adv-x="625" d="M124 -230T77 -221T-1 -197L25 -75Q96 -109 190 -109Q253 -109 292 -79T353 17L369 65Q330 32 283 15T187 -2Q109 -2 68 38T26 147Q26 171 32 198L92 480H268L212 218Q209 203 209 189Q209 135 269 135Q303
135 334 151T391 198L451 480H627L532 33Q504 -97 421 -163T172 -230Q124 -230 77 -221Z" />
<glyph unicode="z" glyph-name="z" horiz-adv-x="518" d="M-5 96L279 358H57L83 480H537L516 384L234 122H468L443 0H-25L-5 96Z" />
<glyph unicode="{" glyph-name="braceleft" horiz-adv-x="356" d="M80 -97T58 -78T36 -18Q36 1 40 18L81 208Q83 222 83 227Q83 268 40 268H11L44 422H73Q99 422 116 437T139 481L179 672Q191 730 225 758T308 787H458L426 638H384Q365 638 356 630T341 602L310
452Q292 369 218 346V344Q268 325 268 270Q268 254 264 238L232 89Q230 79 230 75Q230 63 237 58T260 52H302L270 -97H120Q80 -97 58 -78Z" />
<glyph unicode="|" glyph-name="bar" horiz-adv-x="227" d="M147 812H324L121 -144H-55L147 812Z" />
<glyph unicode="}" glyph-name="braceright" horiz-adv-x="356" d="M-24 52H18Q37 52 46 60T60 89L92 238Q110 321 184 344V346Q134 364 134 419Q134 436 138 452L169 602Q171 612 171 616Q171 638 142 638H100L132 787H282Q322 787 343 768T365 710Q365 691 361
672L321 481Q319 474 319 462Q319 443 329 433T361 422H390L357 268H328Q302 268 286 252T263 208L222 18Q210 -39 177 -68T94 -97H-55L-24 52Z" />
<glyph unicode="~" glyph-name="asciitilde" horiz-adv-x="513" d="M348 238T324 245T258 267Q222 281 198 288T151 295Q82 295 26 240L58 393Q104 439 182 439Q208 439 232 432T297 410Q335 396 358 389T405 382Q474 382 531 438L498 285Q451 238 374 238Q348
238 324 245Z" />
<glyph unicode="&#xa0;" glyph-name="uni00A0" horiz-adv-x="340" />
<glyph unicode="&#xa1;" glyph-name="exclamdown" horiz-adv-x="237" d="M112 366T91 386T70 438Q70 467 86 493T128 534T185 550Q219 550 240 530T261 477Q261 447 245 422T201 381T146 366Q112 366 91 386ZM45 305H221L122 -164H-53L45 305Z" />
<glyph unicode="&#xa2;" glyph-name="cent" horiz-adv-x="539" d="M186 -8Q110 8 65 57T19 182Q19 209 25 239Q47 343 117 407T291 489L311 581H468L448 488Q516 476 553 451L524 314Q498 337 459 348T373 360Q232 360 206 239Q201 216 201 200Q201 158 230 139T321
119Q414 119 499 167L470 31Q419 3 342 -9L323 -101H166L186 -8Z" />
<glyph unicode="&#xa3;" glyph-name="sterling" horiz-adv-x="483" d="M6 149H75L107 298H41L70 437H136L151 505Q173 607 244 660T427 714Q484 714 520 696L491 556Q465 570 430 570Q389 570 361 550T325 490L313 437H449L420 298H284L252 149H439L408 0H-25L6 149Z" />
<glyph unicode="&#xa4;" glyph-name="currency" horiz-adv-x="603" d="M0 121L99 184Q89 208 89 240Q89 261 93 278Q103 327 139 374L68 436L159 525L234 454Q292 486 355 486Q417 486 462 454L566 524L619 436L523 374Q532 347 532 320Q532 298 528 278Q517 225
483 184L553 121L461 31L386 101Q327 70 266 70Q206 70 160 101L54 31L0 121ZM320 192T345 207T385 247T400 302Q400 331 383 348T329 366Q293 366 263 341T225 278Q222 265 222 253Q222 225 239 209T292 192Q320 192 345 207Z" />
<glyph unicode="&#xa5;" glyph-name="yen" horiz-adv-x="750" d="M249 75H121L146 189H273L282 234H155L179 347H258L123 699H306L406 428L629 699H823L533 347H609L585 234H459L450 189H576L551 75H426L410 0H233L249 75Z" />
<glyph unicode="&#xa6;" glyph-name="brokenbar" horiz-adv-x="227" d="M147 812H324L239 410H62L147 812ZM29 257H206L121 -144H-55L29 257Z" />
<glyph unicode="&#xa7;" glyph-name="section" horiz-adv-x="569" d="M110 -170T48 -158T-51 -123L-18 36Q30 8 85 -6T194 -20Q287 -20 300 38Q301 43 301 52Q301 75 279 90T192 135Q119 169 84 210T49 307Q49 333 54 353Q63 397 92 429Q83 450 83 476Q83 492
86 508Q99 569 140 615T247 688T395 714Q459 714 507 704T596 672L563 517Q486 563 396 563Q351 563 321 548T284 503Q283 500 283 493Q283 470 307 454T394 409Q473 374 507 339T541 248Q541 228 534 191Q525 153 498 117Q505 99 505 74Q505 53 501 36Q480 -62
400 -116T176 -170Q110 -170 48 -158ZM379 209T380 221Q382 231 382 235Q382 256 364 269T303 303Q279 313 258 326T227 350Q219 338 218 326Q217 322 217 314Q217 294 235 279T294 245Q327 229 345 219T373 198Q379 209 380 221Z" />
<glyph unicode="&#xa8;" glyph-name="dieresis" horiz-adv-x="440" d="M146 570T128 587T110 631Q110 655 124 676T160 711T206 724Q234 724 251 707T268 662Q268 625 239 598T174 570Q146 570 128 587ZM382 570T364 587T346 631Q346 655 360 676T396 711T442
724Q469 724 486 706T504 662Q504 625 475 598T410 570Q382 570 364 587Z" />
<glyph unicode="&#xa9;" glyph-name="copyright" horiz-adv-x="795" d="M255 -15T186 19T79 118T40 266Q40 306 49 349Q72 457 136 540T294 668T499 714Q588 714 657 680T764 581T803 433Q803 393 794 349Q771 241 708 159T550 31T344 -15Q255 -15 186 19ZM441
92T505 122T614 210T678 349Q688 393 688 435Q688 519 637 562T476 606Q358 606 275 538T165 349Q155 301 155 268Q155 182 208 137T367 92Q441 92 505 122ZM299 136T249 179T199 298Q199 326 204 348Q226 449 297 504T467 560Q566 560 617 524L594 415Q550 453
473 453Q424 453 390 426T344 348Q340 329 340 310Q340 276 360 260T427 244Q504 244 571 284L548 175Q475 136 375 136Q299 136 249 179Z" />
<glyph unicode="&#xaa;" glyph-name="ordfeminine" horiz-adv-x="428" d="M140 349T106 374T71 443Q71 454 74 467Q86 525 130 556T248 587Q276 587 302 581T347 565L348 573Q349 577 349 584Q349 606 331 616T270 627Q207 627 149 603L167 689Q193 700 231 707T310
714Q389 714 432 680T476 595Q476 583 473 569L429 360H311L317 389Q267 349 193 349Q140 349 106 374ZM269 426T290 435T324 458L330 489Q304 509 265 509Q213 509 204 467Q202 459 202 455Q202 426 246 426Q269 426 290 435Z" />
<glyph unicode="&#xab;" glyph-name="guillemotleft" horiz-adv-x="685" d="M40 307L48 344L342 567L419 460L229 318L359 177L239 84L40 307ZM330 307L338 344L632 567L709 460L519 318L649 177L529 84L330 307Z" />
<glyph unicode="&#xac;" glyph-name="logicalnot" horiz-adv-x="447" d="M264 233H24L54 373H451L398 127H241L264 233Z" />
<glyph unicode="&#xad;" glyph-name="uni00AD" horiz-adv-x="406" d="M54 373H410L380 233H24L54 373Z" />
<glyph unicode="&#xae;" glyph-name="registered" horiz-adv-x="795" d="M255 -15T186 19T79 118T40 266Q40 306 49 349Q72 457 136 540T294 668T499 714Q588 714 657 680T764 581T803 433Q803 393 794 349Q771 241 708 159T550 31T344 -15Q255 -15 186 19ZM441
92T505 122T614 210T678 349Q688 393 688 435Q688 519 637 562T476 606Q358 606 275 538T165 349Q155 301 155 268Q155 182 208 137T367 92Q441 92 505 122ZM306 554H495Q556 554 591 527T626 448Q626 428 622 411Q612 365 586 333T522 284L556 160H440L410 267H367L345
160H223L306 554ZM445 367Q496 367 505 411Q506 415 506 423Q506 454 463 454H407L389 367H445Z" />
<glyph unicode="&#xaf;" glyph-name="overscore" horiz-adv-x="395" d="M121 687H466L442 574H97L121 687Z" />
<glyph unicode="&#xb0;" glyph-name="degree" horiz-adv-x="338" d="M163 439T129 473T95 556Q95 570 98 583Q111 644 160 685T273 727Q322 727 355 694T389 612Q389 598 386 583Q374 523 325 481T212 439Q163 439 129 473ZM253 533T270 548T292 583Q294 593 294
597Q294 612 284 622T253 632Q233 632 216 618T193 583Q192 578 192 570Q192 533 232 533Q253 533 270 548Z" />
<glyph unicode="&#xb1;" glyph-name="plusminus" horiz-adv-x="406" d="M142 281H34L62 413H170L194 525H334L310 413H418L390 281H282L258 169H118L142 281ZM3 132H359L331 0H-25L3 132Z" />
<glyph unicode="&#xb2;" glyph-name="uni00B2" horiz-adv-x="339" d="M68 438Q71 440 90 451Q178 505 211 530T250 577Q251 580 251 585Q251 607 214 607Q189 607 160 598T109 574L131 678Q153 691 192 700T265 709Q326 709 356 685T387 621Q387 606 385 599Q377
561 346 532T245 458H361L342 370H53L68 438Z" />
<glyph unicode="&#xb3;" glyph-name="uni00B3" horiz-adv-x="343" d="M148 360T113 365T55 381L73 464Q93 453 118 448T166 442Q198 442 215 450T232 478Q232 491 220 496T178 501H133L148 570H192Q244 570 248 597Q254 626 203 626Q155 626 108 600L126 684Q151
695 188 702T262 709Q322 709 356 688T390 628Q390 569 332 535Q368 519 368 482Q368 476 366 462Q356 415 309 388T186 360Q148 360 113 365Z" />
<glyph unicode="&#xb4;" glyph-name="acute" horiz-adv-x="304" d="M202 745H387L258 567H95L202 745Z" />
<glyph unicode="&#xb6;" glyph-name="paragraph" horiz-adv-x="762" d="M302 277H271Q181 277 129 320T76 449Q76 477 84 517Q110 638 198 700T406 762H848L658 -134H481L641 617H552L392 -134H215L302 277Z" />
<glyph unicode="&#xb7;" glyph-name="middot" horiz-adv-x="177" d="M65 234T51 248T36 283Q36 314 60 337T114 361Q138 361 152 347T166 310Q166 280 142 257T87 234Q65 234 51 248Z" />
<glyph unicode="&#xb8;" glyph-name="cedilla" horiz-adv-x="323" d="M2 -248T-29 -244T-74 -234L-56 -149Q-33 -163 2 -163Q29 -163 44 -152T60 -122Q60 -106 40 -98T-30 -89L22 0H177L149 -46Q182 -53 201 -73T220 -123Q220 -129 218 -141Q208 -195 159 -221T36
-248Q2 -248 -29 -244Z" />
<glyph unicode="&#xb9;" glyph-name="uni00B9" horiz-adv-x="231" d="M171 574L85 521L109 635L210 699H324L254 370H127L171 574Z" />
<glyph unicode="&#xba;" glyph-name="ordmasculine" horiz-adv-x="475" d="M177 348T130 386T83 490Q83 512 87 531Q98 584 133 625T222 690T339 714Q422 714 469 675T516 571Q516 550 512 531Q495 448 427 398T261 348Q177 348 130 386ZM327 447T356 478T385
558Q385 615 318 615Q280 615 253 593T217 531Q214 518 214 505Q214 447 283 447Q327 447 356 478Z" />
<glyph unicode="&#xbb;" glyph-name="guillemotright" horiz-adv-x="685" d="M14 191L204 332L74 474L193 567L393 344L385 307L90 84L14 191ZM304 191L494 332L364 474L483 567L683 344L675 307L380 84L304 191Z" />
<glyph unicode="&#xbc;" glyph-name="onequarter" horiz-adv-x="768" d="M580 699H759L224 0H45L580 699ZM171 574L85 521L109 635L210 699H324L254 370H127L171 574ZM533 58H387L404 138L583 329H717L678 144H723L705 58H660L648 0H521L533 58ZM585 144L604 231L518
144H585Z" />
<glyph unicode="&#xbd;" glyph-name="onehalf" horiz-adv-x="789" d="M580 699H759L224 0H45L580 699ZM171 574L85 521L109 635L210 699H324L254 370H127L171 574ZM439 68Q536 127 575 155T620 207Q621 210 621 216Q621 227 612 232T584 237Q559 237 530 228T480
204L502 308Q525 321 564 330T637 339Q697 339 727 315T757 251Q757 237 755 229Q747 191 716 162T615 88H732L714 0H425L439 68Z" />
<glyph unicode="&#xbe;" glyph-name="threequarters" horiz-adv-x="782" d="M148 360T113 365T55 381L73 464Q93 453 118 448T166 442Q198 442 215 450T232 478Q232 491 220 496T178 501H133L148 570H192Q244 570 248 597Q254 626 203 626Q155 626 108 600L126
684Q151 695 188 702T262 709Q322 709 356 688T390 628Q390 569 332 535Q368 519 368 482Q368 476 366 462Q356 415 309 388T186 360Q148 360 113 365ZM597 699H776L241 0H62L597 699ZM547 58H401L418 138L597 329H731L692 144H737L719 58H674L662 0H535L547 58ZM599
144L618 231L532 144H599Z" />
<glyph unicode="&#xbf;" glyph-name="questiondown" horiz-adv-x="523" d="M296 366T275 386T254 438Q254 468 270 494T313 535T369 550Q403 550 424 530T445 478Q445 447 429 422T386 381T330 366Q296 366 275 386ZM139 -179T87 -160T5 -105T-26 -20Q-26 -1 -22
15Q-12 66 18 98T111 168Q154 195 174 209T206 242T224 286L228 305H404L400 284Q378 182 285 125Q255 107 252 106Q206 78 189 61T171 13Q171 -9 190 -19T257 -29Q302 -29 352 -17T451 17L418 -137Q318 -179 203 -179Q139 -179 87 -160Z" />
<glyph unicode="&#xc0;" glyph-name="Agrave" horiz-adv-x="783" d="M348 920H533L564 742H401L348 920ZM403 699H577L708 0H532L506 144H248L162 0H-25L403 699ZM491 280L456 515L320 280H491Z" />
<glyph unicode="&#xc1;" glyph-name="Aacute" horiz-adv-x="783" d="M509 920H694L565 742H402L509 920ZM403 699H577L708 0H532L506 144H248L162 0H-25L403 699ZM491 280L456 515L320 280H491Z" />
<glyph unicode="&#xc2;" glyph-name="Acircumflex" horiz-adv-x="783" d="M439 923H596L714 742H545L503 827L425 742H246L439 923ZM403 699H577L708 0H532L506 144H248L162 0H-25L403 699ZM491 280L456 515L320 280H491Z" />
<glyph unicode="&#xc3;" glyph-name="Atilde" horiz-adv-x="783" d="M304 870Q347 912 417 912Q439 912 459 906T513 887Q540 875 561 869T604 862Q667 862 718 912L691 784Q650 743 579 743Q554 743 532 749T479 769Q451 781 432 787T392 793Q330 793 276 742L304
870ZM403 699H577L708 0H532L506 144H248L162 0H-25L403 699ZM491 280L456 515L320 280H491Z" />
<glyph unicode="&#xc4;" glyph-name="Adieresis" horiz-adv-x="783" d="M335 742T317 759T299 803Q299 827 313 848T349 883T394 896Q422 896 439 879T456 834Q456 797 427 770T362 742Q335 742 317 759ZM570 742T552 759T534 803Q534 827 548 848T584 883T630
896Q657 896 674 878T692 834Q692 797 663 770T598 742Q570 742 552 759ZM403 699H577L708 0H532L506 144H248L162 0H-25L403 699ZM491 280L456 515L320 280H491Z" />
<glyph unicode="&#xc5;" glyph-name="Aring" horiz-adv-x="783" d="M387 673Q362 703 362 746Q362 790 387 829T452 891T536 914Q587 914 619 883T651 803Q651 766 632 732T582 673L708 0H532L506 144H248L162 0H-25L387 673ZM518 728T535 745T553 786Q553 802
544 811T516 820Q494 820 477 803T459 762Q459 747 468 738T496 728Q518 728 535 745ZM491 280L456 515L320 280H491Z" />
<glyph unicode="&#xc6;" glyph-name="AE" horiz-adv-x="907" d="M429 699H990L958 550H668L641 419H846L816 280H611L583 149H873L842 0H374L404 145H259L165 0H-25L429 699ZM434 284L491 550H490L339 284H434Z" />
<glyph unicode="&#xc7;" glyph-name="Ccedilla" horiz-adv-x="682" d="M276 -248T245 -244T200 -234L218 -149Q241 -163 276 -163Q303 -163 318 -152T334 -122Q334 -106 314 -98T244 -89L290 -10Q218 1 161 37T72 133T40 268Q40 307 49 349Q73 461 135 543T292
670T507 714Q582 714 638 699T737 652L701 484Q665 519 613 535T489 551Q386 551 319 497T231 349Q222 309 222 275Q222 211 263 179T403 146Q475 146 535 163T653 217L617 50Q542 4 446 -8L423 -46Q456 -53 475 -73T494 -123Q494 -129 492 -141Q482 -195 433 -221T310
-248Q276 -248 245 -244Z" />
<glyph unicode="&#xc8;" glyph-name="Egrave" horiz-adv-x="566" d="M257 920H442L473 742H310L257 920ZM143 699H639L607 550H288L261 419H494L464 280H231L203 149H522L491 0H-5L143 699Z" />
<glyph unicode="&#xc9;" glyph-name="Eacute" horiz-adv-x="566" d="M398 912H583L454 734H291L398 912ZM143 699H639L607 550H288L261 419H494L464 280H231L203 149H522L491 0H-5L143 699Z" />
<glyph unicode="&#xca;" glyph-name="Ecircumflex" horiz-adv-x="566" d="M338 923H495L613 742H444L402 827L324 742H145L338 923ZM143 699H639L607 550H288L261 419H494L464 280H231L203 149H522L491 0H-5L143 699Z" />
<glyph unicode="&#xcb;" glyph-name="Edieresis" horiz-adv-x="566" d="M242 752T224 769T206 813Q206 837 220 858T256 893T301 906Q329 906 346 889T363 844Q363 807 334 780T269 752Q242 752 224 769ZM477 752T459 769T441 813Q441 837 455 858T491 893T537
906Q564 906 581 888T599 844Q599 807 570 780T505 752Q477 752 459 769ZM143 699H639L607 550H288L261 419H494L464 280H231L203 149H522L491 0H-5L143 699Z" />
<glyph unicode="&#xcc;" glyph-name="Igrave" horiz-adv-x="267" d="M90 920H275L306 742H143L90 920ZM143 699H320L172 0H-5L143 699Z" />
<glyph unicode="&#xcd;" glyph-name="Iacute" horiz-adv-x="267" d="M244 920H429L300 742H137L244 920ZM143 699H320L172 0H-5L143 699Z" />
<glyph unicode="&#xce;" glyph-name="Icircumflex" horiz-adv-x="267" d="M180 923H337L455 742H286L244 827L166 742H-13L180 923ZM143 699H320L172 0H-5L143 699Z" />
<glyph unicode="&#xcf;" glyph-name="Idieresis" horiz-adv-x="267" d="M78 752T60 769T42 813Q42 837 56 858T92 893T137 906Q165 906 182 889T199 844Q199 807 170 780T105 752Q78 752 60 769ZM313 752T295 769T277 813Q277 837 291 858T327 893T373 906Q400
906 417 888T435 844Q435 807 406 780T341 752Q313 752 295 769ZM143 699H320L172 0H-5L143 699Z" />
<glyph unicode="&#xd0;" glyph-name="Eth" horiz-adv-x="742" d="M96 283H45L73 415H124L184 699H435Q528 699 599 665T709 568T749 423Q749 387 742 353Q707 177 593 89T299 0H36L96 283ZM328 149Q419 149 479 203T560 353Q568 393 568 422Q568 483 534 516T419
550H329L300 415H444L416 283H272L244 149H328Z" />
<glyph unicode="&#xd1;" glyph-name="Ntilde" horiz-adv-x="699" d="M270 870Q313 912 383 912Q405 912 425 906T479 887Q506 875 527 869T570 862Q633 862 684 912L657 784Q616 743 545 743Q520 743 498 749T445 769Q417 781 398 787T358 793Q296 793 242 742L270
870ZM143 699H323L492 283L580 699H752L604 0H435L265 417L177 0H-5L143 699Z" />
<glyph unicode="&#xd2;" glyph-name="Ograve" horiz-adv-x="800" d="M375 920H560L591 742H428L375 920ZM256 -15T187 19T79 117T40 264Q40 304 49 349Q72 456 138 539T300 668T502 714Q593 714 662 680T770 582T808 433Q808 393 799 349Q776 242 709 160T547
31T347 -15Q256 -15 187 19ZM436 151T485 175T569 244T618 349Q624 379 624 406Q624 473 584 510T467 547Q412 547 363 523T279 454T231 349Q224 320 224 290Q224 223 264 187T383 151Q436 151 485 175Z" />
<glyph unicode="&#xd3;" glyph-name="Oacute" horiz-adv-x="800" d="M512 920H697L568 742H405L512 920ZM256 -15T187 19T79 117T40 264Q40 304 49 349Q72 456 138 539T300 668T502 714Q593 714 662 680T770 582T808 433Q808 393 799 349Q776 242 709 160T547
31T347 -15Q256 -15 187 19ZM436 151T485 175T569 244T618 349Q624 379 624 406Q624 473 584 510T467 547Q412 547 363 523T279 454T231 349Q224 320 224 290Q224 223 264 187T383 151Q436 151 485 175Z" />
<glyph unicode="&#xd4;" glyph-name="Ocircumflex" horiz-adv-x="800" d="M447 923H604L722 742H553L511 827L433 742H254L447 923ZM256 -15T187 19T79 117T40 264Q40 304 49 349Q72 456 138 539T300 668T502 714Q593 714 662 680T770 582T808 433Q808 393 799
349Q776 242 709 160T547 31T347 -15Q256 -15 187 19ZM436 151T485 175T569 244T618 349Q624 379 624 406Q624 473 584 510T467 547Q412 547 363 523T279 454T231 349Q224 320 224 290Q224 223 264 187T383 151Q436 151 485 175Z" />
<glyph unicode="&#xd5;" glyph-name="Otilde" horiz-adv-x="800" d="M312 870Q355 912 425 912Q447 912 467 906T521 887Q548 875 569 869T612 862Q675 862 726 912L699 784Q658 743 587 743Q562 743 540 749T487 769Q459 781 440 787T400 793Q338 793 284 742L312
870ZM256 -15T187 19T79 117T40 264Q40 304 49 349Q72 456 138 539T300 668T502 714Q593 714 662 680T770 582T808 433Q808 393 799 349Q776 242 709 160T547 31T347 -15Q256 -15 187 19ZM436 151T485 175T569 244T618 349Q624 379 624 406Q624 473 584 510T467
547Q412 547 363 523T279 454T231 349Q224 320 224 290Q224 223 264 187T383 151Q436 151 485 175Z" />
<glyph unicode="&#xd6;" glyph-name="Odieresis" horiz-adv-x="800" d="M344 747T326 764T308 808Q308 832 322 853T358 888T403 901Q431 901 448 884T465 839Q465 802 436 775T371 747Q344 747 326 764ZM579 747T561 764T543 808Q543 832 557 853T593 888T639
901Q666 901 683 883T701 839Q701 802 672 775T607 747Q579 747 561 764ZM256 -15T187 19T79 117T40 264Q40 304 49 349Q72 456 138 539T300 668T502 714Q593 714 662 680T770 582T808 433Q808 393 799 349Q776 242 709 160T547 31T347 -15Q256 -15 187 19ZM436
151T485 175T569 244T618 349Q624 379 624 406Q624 473 584 510T467 547Q412 547 363 523T279 454T231 349Q224 320 224 290Q224 223 264 187T383 151Q436 151 485 175Z" />
<glyph unicode="&#xd7;" glyph-name="multiply" horiz-adv-x="401" d="M195 210L103 135L25 234L117 310L57 386L178 485L237 409L330 486L408 386L315 310L375 234L255 134L195 210Z" />
<glyph unicode="&#xd8;" glyph-name="Oslash" horiz-adv-x="800" d="M165 30Q105 67 72 126T39 263Q39 306 49 349Q72 456 138 539T300 668T502 714Q541 714 581 706L629 784H751L680 669Q741 633 774 573T808 433Q808 393 799 349Q776 242 709 160T547 31T347
-15Q306 -15 264 -7L216 -86H94L165 30ZM483 546Q478 547 467 547Q412 547 363 523T279 454T231 349Q224 320 224 289Q224 224 263 189L483 546ZM383 151Q436 151 485 175T569 244T618 349Q624 379 624 405Q624 472 583 510L362 151H383Z" />
<glyph unicode="&#xd9;" glyph-name="Ugrave" horiz-adv-x="715" d="M331 920H516L547 742H384L331 920ZM179 -15T111 48T43 216Q43 253 52 293L138 699H315L228 291Q221 254 221 235Q221 191 248 170T339 149Q411 149 452 184T509 291L596 699H773L687 293Q621
-15 304 -15Q179 -15 111 48Z" />
<glyph unicode="&#xda;" glyph-name="Uacute" horiz-adv-x="715" d="M477 920H662L533 742H370L477 920ZM179 -15T111 48T43 216Q43 253 52 293L138 699H315L228 291Q221 254 221 235Q221 191 248 170T339 149Q411 149 452 184T509 291L596 699H773L687 293Q621
-15 304 -15Q179 -15 111 48Z" />
<glyph unicode="&#xdb;" glyph-name="Ucircumflex" horiz-adv-x="715" d="M404 923H561L679 742H510L468 827L390 742H211L404 923ZM179 -15T111 48T43 216Q43 253 52 293L138 699H315L228 291Q221 254 221 235Q221 191 248 170T339 149Q411 149 452 184T509 291L596
699H773L687 293Q621 -15 304 -15Q179 -15 111 48Z" />
<glyph unicode="&#xdc;" glyph-name="Udieresis" horiz-adv-x="715" d="M301 747T283 764T265 808Q265 832 279 853T315 888T360 901Q388 901 405 884T422 839Q422 802 393 775T328 747Q301 747 283 764ZM536 747T518 764T500 808Q500 832 514 853T550 888T596
901Q623 901 640 883T658 839Q658 802 629 775T564 747Q536 747 518 764ZM179 -15T111 48T43 216Q43 253 52 293L138 699H315L228 291Q221 254 221 235Q221 191 248 170T339 149Q411 149 452 184T509 291L596 699H773L687 293Q621 -15 304 -15Q179 -15 111 48Z"
/>
<glyph unicode="&#xdd;" glyph-name="Yacute" horiz-adv-x="750" d="M474 920H659L530 742H367L474 920ZM289 266L123 699H306L406 428L629 699H823L466 266L410 0H233L289 266Z" />
<glyph unicode="&#xde;" glyph-name="Thorn" horiz-adv-x="636" d="M143 699H320L296 588H431Q530 588 590 540T651 407Q651 381 645 352Q619 231 543 174T331 116H196L172 0H-5L143 699ZM331 265Q386 265 419 283T463 352Q466 367 466 378Q466 413 441 426T368
439H265L228 265H331Z" />
<glyph unicode="&#xdf;" glyph-name="germandbls" horiz-adv-x="648" d="M258 -15T219 3L250 149Q277 129 332 129Q374 129 403 155T441 224Q444 239 444 250Q444 315 357 315H304L330 437H373Q413 437 437 461T470 524Q473 538 473 549Q473 575 456 587T397 600Q344
600 314 578T274 509L166 0H-10L93 489Q120 613 199 678T427 744Q503 744 554 720T629 655T653 565Q653 544 648 521Q638 474 611 436T542 377Q581 360 601 328T622 253Q622 235 617 208Q594 102 524 44T341 -15Q258 -15 219 3Z" />
<glyph unicode="&#xe0;" glyph-name="agrave" horiz-adv-x="661" d="M316 696H501L532 518H369L316 696ZM132 -15T76 37T19 178Q19 202 26 239Q42 314 86 372T195 463T336 495Q386 495 425 481T488 441L497 480H673L571 0H401L411 48Q330 -15 227 -15Q132 -15
76 37ZM342 121T378 141T436 197L454 282Q448 317 421 337T353 358Q299 358 259 326T207 239Q203 222 203 202Q203 121 302 121Q342 121 378 141Z" />
<glyph unicode="&#xe1;" glyph-name="aacute" horiz-adv-x="661" d="M435 696H620L491 518H328L435 696ZM132 -15T76 37T19 178Q19 202 26 239Q42 314 86 372T195 463T336 495Q386 495 425 481T488 441L497 480H673L571 0H401L411 48Q330 -15 227 -15Q132 -15
76 37ZM342 121T378 141T436 197L454 282Q448 317 421 337T353 358Q299 358 259 326T207 239Q203 222 203 202Q203 121 302 121Q342 121 378 141Z" />
<glyph unicode="&#xe2;" glyph-name="acircumflex" horiz-adv-x="662" d="M388 706H545L663 525H494L452 610L374 525H195L388 706ZM132 -15T76 37T19 178Q19 202 26 239Q42 314 86 372T195 463T336 495Q386 495 425 481T488 441L497 480H673L571 0H401L411 48Q330
-15 227 -15Q132 -15 76 37ZM342 121T378 141T436 197L454 282Q448 317 421 337T353 358Q299 358 259 326T207 239Q203 222 203 202Q203 121 302 121Q342 121 378 141Z" />
<glyph unicode="&#xe3;" glyph-name="atilde" horiz-adv-x="661" d="M262 653Q305 695 375 695Q397 695 417 689T471 670Q498 658 519 652T562 645Q625 645 676 695L649 567Q608 526 537 526Q512 526 490 532T437 552Q409 564 390 570T350 576Q288 576 234 525L262
653ZM132 -15T76 37T19 178Q19 202 26 239Q42 314 86 372T195 463T336 495Q386 495 425 481T488 441L497 480H673L571 0H401L411 48Q330 -15 227 -15Q132 -15 76 37ZM342 121T378 141T436 197L454 282Q448 317 421 337T353 358Q299 358 259 326T207 239Q203 222
203 202Q203 121 302 121Q342 121 378 141Z" />
<glyph unicode="&#xe4;" glyph-name="adieresis" horiz-adv-x="661" d="M275 521T257 538T239 582Q239 606 253 627T289 662T334 675Q362 675 379 658T396 613Q396 576 367 549T302 521Q275 521 257 538ZM510 521T492 538T474 582Q474 606 488 627T524 662T570
675Q597 675 614 657T632 613Q632 576 603 549T538 521Q510 521 492 538ZM132 -15T76 37T19 178Q19 202 26 239Q42 314 86 372T195 463T336 495Q386 495 425 481T488 441L497 480H673L571 0H401L411 48Q330 -15 227 -15Q132 -15 76 37ZM342 121T378 141T436 197L454
282Q448 317 421 337T353 358Q299 358 259 326T207 239Q203 222 203 202Q203 121 302 121Q342 121 378 141Z" />
<glyph unicode="&#xe5;" glyph-name="aring" horiz-adv-x="661" d="M379 525T348 556T316 635Q316 679 341 718T406 780T490 804Q541 804 573 773T605 693Q605 648 580 610T514 548T430 525Q379 525 348 556ZM472 618T489 635T507 676Q507 692 498 701T470 710Q448
710 431 693T413 652Q413 637 422 628T450 618Q472 618 489 635ZM132 -15T76 37T19 178Q19 202 26 239Q42 314 86 372T195 463T336 495Q386 495 425 481T488 441L497 480H673L571 0H401L411 48Q330 -15 227 -15Q132 -15 76 37ZM342 121T378 141T436 197L454 282Q448
317 421 337T353 358Q299 358 259 326T207 239Q203 222 203 202Q203 121 302 121Q342 121 378 141Z" />
<glyph unicode="&#xe6;" glyph-name="ae" horiz-adv-x="960" d="M103 -15T53 19T2 116Q2 126 6 150Q23 230 87 274T249 318Q288 318 325 310T388 287L390 297Q392 309 392 313Q392 374 280 374Q191 374 112 340L137 461Q173 476 227 485T337 495Q399 495 440 480T511
434Q551 462 605 478T718 495Q792 495 842 469T918 398T943 299Q943 273 937 246L924 185H542Q545 105 683 105Q730 105 781 113T871 135L847 19Q806 4 750 -5T637 -15Q503 -15 439 57Q391 21 333 3T186 -15Q103 -15 53 19ZM780 289L781 301Q781 336 758 355T689
374Q641 374 609 351T564 289H780ZM278 93T307 104T355 136L365 180Q328 209 273 209Q201 209 187 150Q186 145 186 137Q186 93 247 93Q278 93 307 104Z" />
<glyph unicode="&#xe7;" glyph-name="ccedilla" horiz-adv-x="539" d="M179 -248T148 -244T103 -234L121 -149Q144 -163 179 -163Q206 -163 221 -152T237 -122Q237 -106 217 -98T147 -89L193 -10Q111 3 65 51T18 178Q18 208 25 239Q52 363 141 429T367 495Q427
495 475 484T553 451L524 314Q498 336 459 347T373 358Q309 358 264 329T206 239Q202 222 202 203Q202 160 231 141T321 121Q417 121 499 167L470 31Q419 4 349 -8L326 -46Q359 -53 378 -73T397 -123Q397 -129 395 -141Q385 -195 336 -221T213 -248Q179 -248 148
-244Z" />
<glyph unicode="&#xe8;" glyph-name="egrave" horiz-adv-x="600" d="M234 696H419L450 518H287L234 696ZM157 -15T88 36T19 181Q19 208 25 238Q51 359 134 427T358 495Q427 495 478 469T556 398T583 297Q583 273 577 246L563 181H180Q183 105 323 105Q370 105
421 113T511 135L487 19Q447 4 389 -5T273 -15Q157 -15 88 36ZM420 291Q421 297 421 307Q421 340 400 357T329 374Q281 374 248 352T203 291H420Z" />
<glyph unicode="&#xe9;" glyph-name="eacute" horiz-adv-x="600" d="M368 696H553L424 518H261L368 696ZM157 -15T88 36T19 181Q19 208 25 238Q51 359 134 427T358 495Q427 495 478 469T556 398T583 297Q583 273 577 246L563 181H180Q183 105 323 105Q370 105
421 113T511 135L487 19Q447 4 389 -5T273 -15Q157 -15 88 36ZM420 291Q421 297 421 307Q421 340 400 357T329 374Q281 374 248 352T203 291H420Z" />
<glyph unicode="&#xea;" glyph-name="ecircumflex" horiz-adv-x="618" d="M326 706H483L601 525H432L390 610L312 525H133L326 706ZM175 -15T106 36T37 181Q37 208 43 238Q69 359 152 427T376 495Q445 495 496 469T574 398T601 297Q601 273 595 246L581 181H198Q201
105 341 105Q388 105 439 113T529 135L505 19Q465 4 407 -5T291 -15Q175 -15 106 36ZM438 291Q439 297 439 307Q439 340 418 357T347 374Q299 374 266 352T221 291H438Z" />
<glyph unicode="&#xeb;" glyph-name="edieresis" horiz-adv-x="600" d="M208 526T190 543T172 587Q172 611 186 632T222 667T267 680Q295 680 312 663T329 618Q329 581 300 554T235 526Q208 526 190 543ZM443 526T425 543T407 587Q407 611 421 632T457 667T503
680Q530 680 547 662T565 618Q565 581 536 554T471 526Q443 526 425 543ZM157 -15T88 36T19 181Q19 208 25 238Q51 359 134 427T358 495Q427 495 478 469T556 398T583 297Q583 273 577 246L563 181H180Q183 105 323 105Q370 105 421 113T511 135L487 19Q447 4 389
-5T273 -15Q157 -15 88 36ZM420 291Q421 297 421 307Q421 340 400 357T329 374Q281 374 248 352T203 291H420Z" />
<glyph unicode="&#xec;" glyph-name="igrave" horiz-adv-x="266" d="M43 696H228L259 518H96L43 696ZM97 480H273L171 0H-5L97 480Z" />
<glyph unicode="&#xed;" glyph-name="iacute" horiz-adv-x="266" d="M193 696H378L249 518H86L193 696ZM97 480H273L171 0H-5L97 480Z" />
<glyph unicode="&#xee;" glyph-name="icircumflex" horiz-adv-x="266" d="M134 706H291L409 525H240L198 610L120 525H-59L134 706ZM97 480H273L171 0H-5L97 480Z" />
<glyph unicode="&#xef;" glyph-name="idieresis" horiz-adv-x="266" d="M30 526T12 543T-6 587Q-6 611 8 632T44 667T89 680Q117 680 134 663T151 618Q151 581 122 554T57 526Q30 526 12 543ZM265 526T247 543T229 587Q229 611 243 632T279 667T325 680Q352 680
369 662T387 618Q387 581 358 554T293 526Q265 526 247 543ZM97 480H273L171 0H-5L97 480Z" />
<glyph unicode="&#xf0;" glyph-name="eth" horiz-adv-x="628" d="M178 -15T126 9T45 75T17 174Q17 199 23 226Q46 336 129 396T329 457Q371 457 408 445T467 411Q470 438 470 461Q470 516 449 542L306 474L321 544L389 577Q372 581 344 581Q307 581 270 575T207
556L236 695Q263 703 301 708T375 714Q491 714 558 657L687 719L673 650L597 613Q637 551 637 456Q637 398 622 326Q599 221 546 144T416 26T251 -15Q178 -15 126 9ZM321 118T349 136T394 184T411 248Q411 284 390 304T330 325Q283 325 250 298T207 222Q203 205
203 186Q203 153 222 136T286 118Q321 118 349 136Z" />
<glyph unicode="&#xf1;" glyph-name="ntilde" horiz-adv-x="620" d="M182 654Q225 696 295 696Q317 696 337 690T391 671Q418 659 439 653T482 646Q545 646 596 696L569 568Q528 527 457 527Q432 527 410 533T357 553Q329 565 310 571T270 577Q208 577 154 526L182
654ZM97 480H267L255 427Q294 461 341 478T437 495Q514 495 556 453T598 345Q598 325 593 300L530 0H354L412 277Q416 293 416 309Q416 333 402 345T356 358Q322 358 291 342T233 295L171 0H-5L97 480Z" />
<glyph unicode="&#xf2;" glyph-name="ograve" horiz-adv-x="642" d="M242 696H427L458 518H295L242 696ZM151 -15T86 38T20 183Q20 210 26 240Q50 356 141 425T376 495Q493 495 558 441T624 295Q624 269 618 240Q593 124 502 55T267 -15Q151 -15 86 38ZM349 122T387
153T438 240Q442 257 442 277Q442 358 347 358Q294 358 256 327T206 240Q201 217 201 201Q201 122 296 122Q349 122 387 153Z" />
<glyph unicode="&#xf3;" glyph-name="oacute" horiz-adv-x="642" d="M390 696H575L446 518H283L390 696ZM151 -15T86 38T20 183Q20 210 26 240Q50 356 141 425T376 495Q493 495 558 441T624 295Q624 269 618 240Q593 124 502 55T267 -15Q151 -15 86 38ZM349 122T387
153T438 240Q442 257 442 277Q442 358 347 358Q294 358 256 327T206 240Q201 217 201 201Q201 122 296 122Q349 122 387 153Z" />
<glyph unicode="&#xf4;" glyph-name="ocircumflex" horiz-adv-x="642" d="M323 706H480L598 525H429L387 610L309 525H130L323 706ZM151 -15T86 38T20 183Q20 210 26 240Q50 356 141 425T376 495Q493 495 558 441T624 295Q624 269 618 240Q593 124 502 55T267
-15Q151 -15 86 38ZM349 122T387 153T438 240Q442 257 442 277Q442 358 347 358Q294 358 256 327T206 240Q201 217 201 201Q201 122 296 122Q349 122 387 153Z" />
<glyph unicode="&#xf5;" glyph-name="otilde" horiz-adv-x="642" d="M190 660Q233 702 303 702Q325 702 345 696T399 677Q426 665 447 659T490 652Q553 652 604 702L577 574Q536 533 465 533Q440 533 418 539T365 559Q337 571 318 577T278 583Q216 583 162 532L190
660ZM151 -15T86 38T20 183Q20 210 26 240Q50 356 141 425T376 495Q493 495 558 441T624 295Q624 269 618 240Q593 124 502 55T267 -15Q151 -15 86 38ZM349 122T387 153T438 240Q442 257 442 277Q442 358 347 358Q294 358 256 327T206 240Q201 217 201 201Q201
122 296 122Q349 122 387 153Z" />
<glyph unicode="&#xf6;" glyph-name="odieresis" horiz-adv-x="642" d="M219 526T201 543T183 587Q183 611 197 632T233 667T278 680Q306 680 323 663T340 618Q340 581 311 554T246 526Q219 526 201 543ZM454 526T436 543T418 587Q418 611 432 632T468 667T514
680Q541 680 558 662T576 618Q576 581 547 554T482 526Q454 526 436 543ZM151 -15T86 38T20 183Q20 210 26 240Q50 356 141 425T376 495Q493 495 558 441T624 295Q624 269 618 240Q593 124 502 55T267 -15Q151 -15 86 38ZM349 122T387 153T438 240Q442 257 442
277Q442 358 347 358Q294 358 256 327T206 240Q201 217 201 201Q201 122 296 122Q349 122 387 153Z" />
<glyph unicode="&#xf7;" glyph-name="divide" horiz-adv-x="406" d="M212 402T197 416T182 453Q182 486 207 510T264 534Q288 534 303 520T318 482Q318 450 293 426T236 402Q212 402 197 416ZM54 373H410L380 233H24L54 373ZM142 71T127 85T112 123Q112 155 137
179T194 203Q218 203 232 189T247 151Q247 120 223 96T166 71Q142 71 127 85Z" />
<glyph unicode="&#xf8;" glyph-name="oslash" horiz-adv-x="642" d="M123 14Q73 39 47 82T20 183Q20 210 26 240Q50 356 141 425T376 495Q390 495 418 493L463 566H578L517 467Q569 442 596 398T624 295Q624 269 618 240Q593 124 502 55T267 -15Q250 -15 222 -13L177
-86H62L123 14ZM334 357Q285 353 251 322T206 240Q201 217 201 200Q201 174 211 157L334 357ZM355 125T390 156T438 240Q442 257 442 276Q442 306 429 325L305 122Q355 125 390 156Z" />
<glyph unicode="&#xf9;" glyph-name="ugrave" horiz-adv-x="620" d="M236 696H421L452 518H289L236 696ZM106 -15T65 25T23 134Q23 158 29 185L92 480H268L209 205Q206 190 206 176Q206 122 266 122Q300 122 331 138T388 185L451 480H627L525 0H355L366 52Q327
19 280 2T184 -15Q106 -15 65 25Z" />
<glyph unicode="&#xfa;" glyph-name="uacute" horiz-adv-x="620" d="M372 696H557L428 518H265L372 696ZM106 -15T65 25T23 134Q23 158 29 185L92 480H268L209 205Q206 190 206 176Q206 122 266 122Q300 122 331 138T388 185L451 480H627L525 0H355L366 52Q327
19 280 2T184 -15Q106 -15 65 25Z" />
<glyph unicode="&#xfb;" glyph-name="ucircumflex" horiz-adv-x="620" d="M311 706H468L586 525H417L375 610L297 525H118L311 706ZM106 -15T65 25T23 134Q23 158 29 185L92 480H268L209 205Q206 190 206 176Q206 122 266 122Q300 122 331 138T388 185L451 480H627L525
0H355L366 52Q327 19 280 2T184 -15Q106 -15 65 25Z" />
<glyph unicode="&#xfc;" glyph-name="udieresis" horiz-adv-x="620" d="M208 526T190 543T172 587Q172 611 186 632T222 667T267 680Q295 680 312 663T329 618Q329 581 300 554T235 526Q208 526 190 543ZM443 526T425 543T407 587Q407 611 421 632T457 667T503
680Q530 680 547 662T565 618Q565 581 536 554T471 526Q443 526 425 543ZM106 -15T65 25T23 134Q23 158 29 185L92 480H268L209 205Q206 190 206 176Q206 122 266 122Q300 122 331 138T388 185L451 480H627L525 0H355L366 52Q327 19 280 2T184 -15Q106 -15 65 25Z"
/>
<glyph unicode="&#xfd;" glyph-name="yacute" horiz-adv-x="625" d="M382 698H567L438 520H275L382 698ZM124 -230T77 -221T-1 -197L25 -75Q96 -109 190 -109Q253 -109 292 -79T353 17L369 65Q330 32 283 15T187 -2Q109 -2 68 38T26 147Q26 171 32 198L92 480H268L212
218Q209 203 209 189Q209 135 269 135Q303 135 334 151T391 198L451 480H627L532 33Q504 -97 421 -163T172 -230Q124 -230 77 -221Z" />
<glyph unicode="&#xfe;" glyph-name="thorn" horiz-adv-x="665" d="M143 699H319L264 441Q298 466 345 480T440 495Q499 495 546 471T620 403T647 299Q647 271 641 241Q615 122 537 54T331 -15Q283 -15 243 -1T179 39L124 -219H-51L143 699ZM368 122T408 154T460
241Q464 258 464 277Q464 359 365 359Q325 359 289 339T231 283L213 198Q219 163 246 143T314 122Q368 122 408 154Z" />
<glyph unicode="&#xff;" glyph-name="ydieresis" horiz-adv-x="625" d="M226 526T208 543T190 587Q190 611 204 632T240 667T285 680Q313 680 330 663T347 618Q347 581 318 554T253 526Q226 526 208 543ZM461 526T443 543T425 587Q425 611 439 632T475 667T521
680Q548 680 565 662T583 618Q583 581 554 554T489 526Q461 526 443 543ZM124 -230T77 -221T-1 -197L25 -75Q96 -109 190 -109Q253 -109 292 -79T353 17L369 65Q330 32 283 15T187 -2Q109 -2 68 38T26 147Q26 171 32 198L92 480H268L212 218Q209 203 209 189Q209
135 269 135Q303 135 334 151T391 198L451 480H627L532 33Q504 -97 421 -163T172 -230Q124 -230 77 -221Z" />
<glyph unicode="&#x2013;" glyph-name="endash" horiz-adv-x="659" d="M54 373H663L633 233H24L54 373Z" />
<glyph unicode="&#x2014;" glyph-name="emdash" horiz-adv-x="794" d="M54 373H798L768 233H24L54 373Z" />
<glyph unicode="&#x2018;" glyph-name="quoteleft" horiz-adv-x="278" d="M209 714H354L248 514H84L209 714Z" />
<glyph unicode="&#x2019;" glyph-name="quoteright" horiz-adv-x="282" d="M190 714H358L233 514H84L190 714Z" />
<glyph unicode="&#x201a;" glyph-name="quotesinglbase" horiz-adv-x="282" d="M54 71H222L96 -129H-52L54 71Z" />
<glyph unicode="&#x201c;" glyph-name="quotedblleft" horiz-adv-x="481" d="M209 714H358L252 514H84L209 714ZM408 714H557L451 514H283L408 714Z" />
<glyph unicode="&#x201d;" glyph-name="quotedblright" horiz-adv-x="481" d="M190 714H358L233 514H84L190 714ZM389 714H557L432 514H283L389 714Z" />
<glyph unicode="&#x201e;" glyph-name="quotedblbase" horiz-adv-x="481" d="M54 71H222L96 -129H-52L54 71ZM253 71H421L295 -129H146L253 71Z" />
<glyph unicode="&#x2022;" glyph-name="bullet" horiz-adv-x="257" d="M83 194T60 217T36 276Q36 309 54 338T102 384T164 401Q201 401 224 379T247 320Q247 287 229 258T182 212T120 194Q83 194 60 217Z" />
<glyph unicode="&#x2039;" glyph-name="guilsinglleft" horiz-adv-x="395" d="M40 307L48 344L342 567L419 462L229 320L359 179L239 84L40 307Z" />
<glyph unicode="&#x203a;" glyph-name="guilsinglright" horiz-adv-x="395" d="M14 189L204 330L74 472L193 567L393 344L385 307L90 84L14 189Z" />
</font>
</defs>
</svg>
