<?xml version="1.0" standalone="no"?>
<!DOCTYPE svg PUBLIC "-//W3C//DTD SVG 1.1//EN" "http://www.w3.org/Graphics/SVG/1.1/DTD/svg11.dtd">
<svg xmlns="http://www.w3.org/2000/svg">
<defs >
<font id="Prompt" horiz-adv-x="591" ><font-face
    font-family="Prompt"
    units-per-em="1000"
    panose-1="0 0 5 0 0 0 0 0 0 0"
    ascent="1090"
    descent="-422"
    alphabetic="0" />
<glyph unicode=" " glyph-name="space" horiz-adv-x="370" />
<glyph unicode="!" glyph-name="exclam" horiz-adv-x="209" d="M154 699H252L146 200H48L154 699ZM29 -15T16 -2T3 31Q3 60 25 81T75 103Q97 103 110 90T124 56Q124 27 101 6T50 -15Q29 -15 16 -2Z" />
<glyph unicode="&quot;" glyph-name="quotedbl" horiz-adv-x="338" d="M143 699H229L189 512H103L143 699ZM305 699H391L351 512H265L305 699Z" />
<glyph unicode="#" glyph-name="numbersign" horiz-adv-x="763" d="M127 170H31L48 250H166L256 432H127L144 512H296L388 699H478L385 512H597L689 699H780L688 512H776L759 432H648L558 250H680L663 170H519L435 0H344L428 170H217L133 0H43L127 170ZM467 250L557
432H346L256 250H467Z" />
<glyph unicode="$" glyph-name="dollar" horiz-adv-x="561" d="M187 -15Q130 -13 80 -3T0 24L19 115Q100 72 205 70L258 317L255 319Q179 353 144 391T108 482Q108 507 113 527Q128 601 190 650T341 711L361 802H449L430 713Q511 707 575 676L556 588Q487 623
412 627L360 383Q438 348 473 314T509 224Q509 203 503 176Q486 98 429 51T276 -10L257 -103H169L187 -15ZM322 620Q271 608 244 578T216 502Q216 477 231 459T280 421L322 620ZM380 101T396 176Q399 190 399 202Q399 227 385 245T338 280L295 79Q380 101 396 176Z"
/>
<glyph unicode="%" glyph-name="percent" horiz-adv-x="885" d="M213 347T179 366T126 418T106 493Q106 513 110 530Q128 612 188 663T332 714Q374 714 408 695T461 642T481 566Q481 546 477 530Q460 450 399 399T254 347Q213 347 179 366ZM686 699H785L250 0H151L686
699ZM316 421T353 452T400 528Q404 550 404 560Q404 595 383 615T316 636Q270 636 233 605T186 528Q182 506 182 497Q182 462 203 442T270 421Q316 421 353 452ZM561 -15T527 4T474 56T454 131Q454 151 458 168Q476 250 536 301T680 352Q722 352 756 333T809 280T829
204Q829 184 825 168Q808 88 747 37T602 -15Q561 -15 527 4ZM664 59T701 90T748 166Q752 188 752 198Q752 233 731 253T664 274Q618 274 581 243T534 166Q530 144 530 135Q530 100 551 80T618 59Q664 59 701 90Z" />
<glyph unicode="&amp;" glyph-name="ampersand" horiz-adv-x="773" d="M145 -15T86 24T27 135Q27 155 31 174Q46 241 94 289T236 385Q202 424 186 454T170 518Q170 535 174 551Q190 625 249 669T393 714Q436 714 470 696T524 647T544 579Q544 565 541 551Q529
496 491 457T371 371L523 191Q547 220 562 259T589 356H678Q662 279 639 227T575 127L683 0H561L504 68Q449 25 385 5T243 -15Q145 -15 86 24ZM385 455T414 482T451 547Q454 562 454 574Q454 637 377 637Q333 637 303 613T264 547Q262 533 262 527Q262 503 276
481T322 422Q385 455 414 482ZM318 60T367 77T454 127L289 328Q215 295 178 260T129 174Q126 161 126 148Q126 104 161 82T260 60Q318 60 367 77Z" />
<glyph unicode="&apos;" glyph-name="quotesingle" horiz-adv-x="176" d="M143 699H229L189 512H103L143 699Z" />
<glyph unicode="(" glyph-name="parenleft" horiz-adv-x="330" d="M34 -56T34 104Q34 182 52 270Q80 401 142 513T294 714H401Q305 617 244 508T155 270Q138 191 138 113Q138 -41 213 -174H106Q34 -56 34 104Z" />
<glyph unicode=")" glyph-name="parenright" horiz-adv-x="330" d="M40 -77T101 32T189 270Q206 349 206 427Q206 581 131 714H238Q310 596 310 436Q310 357 292 270Q264 138 202 26T50 -174H-56Q40 -77 101 32Z" />
<glyph unicode="*" glyph-name="asterisk" horiz-adv-x="436" d="M125 422L229 534L117 578L153 632L257 590L280 699H352L329 590L450 632L463 575L331 532L389 420L328 384L275 490L176 383L125 422Z" />
<glyph unicode="+" glyph-name="plus" horiz-adv-x="409" d="M167 256H49L67 339H185L210 457H292L267 339H386L368 256H249L224 137H142L167 256Z" />
<glyph unicode="," glyph-name="comma" horiz-adv-x="277" d="M87 53H193L55 -148H-37L87 53Z" />
<glyph unicode="-" glyph-name="hyphen" horiz-adv-x="409" d="M67 339H386L368 256H49L67 339Z" />
<glyph unicode="." glyph-name="period" horiz-adv-x="185" d="M25 0T14 10T3 38Q3 44 4 47Q8 67 25 81T62 95Q79 95 89 85T100 58Q100 51 99 47Q95 27 79 14T42 0Q25 0 14 10Z" />
<glyph unicode="/" glyph-name="slash" horiz-adv-x="477" d="M431 714H533L97 0H-5L431 714Z" />
<glyph unicode="0" glyph-name="zero" horiz-adv-x="672" d="M177 -15T117 52T56 237Q56 291 69 349Q106 521 201 617T437 714Q543 714 603 647T664 462Q664 408 651 349Q615 179 518 82T282 -15Q177 -15 117 52ZM390 75T456 148T549 348Q563 415 563 464Q563
622 418 622Q328 622 262 548T169 348Q156 283 156 239Q156 75 301 75Q390 75 456 148Z" />
<glyph unicode="1" glyph-name="one" horiz-adv-x="363" d="M271 589L97 480L117 577L308 699H396L248 0H146L271 589Z" />
<glyph unicode="2" glyph-name="two" horiz-adv-x="581" d="M9 67L191 212Q206 224 258 264Q326 317 362 348T426 416T462 495Q466 514 466 533Q466 622 348 622Q301 622 248 605T144 555L165 653Q263 714 383 714Q469 714 520 669T571 547Q571 527 566 500Q556
452 526 408T451 322T328 218L164 85H504L486 0H-5L9 67Z" />
<glyph unicode="3" glyph-name="three" horiz-adv-x="574" d="M144 -15T90 -6T-1 23L17 107Q101 65 208 65Q300 65 352 98T417 194Q420 211 420 223Q420 271 380 292T256 313H174L191 395H271Q346 395 399 425T464 515Q468 532 468 550Q468 592 438 612T341 633Q285
633 238 620T135 577L153 661Q251 714 370 714Q467 714 519 672T572 559Q572 537 568 518Q557 462 518 420T413 355Q467 342 495 308T523 227Q523 215 519 191Q500 96 423 41T204 -15Q144 -15 90 -6Z" />
<glyph unicode="4" glyph-name="four" horiz-adv-x="601" d="M351 172H11L25 237L462 699H566L471 252H579L562 172H454L418 0H315L351 172ZM380 252L449 577L143 252H380Z" />
<glyph unicode="5" glyph-name="five" horiz-adv-x="570" d="M131 -15T82 -4T0 28L20 119Q56 94 105 81T201 67Q292 67 347 105T418 219Q424 245 424 265Q424 315 389 340T276 365Q240 365 199 358T125 339L85 365L182 699H573L555 613H257L204 433Q267 446 332
446Q422 446 474 400T527 273Q527 248 521 219Q472 -15 186 -15Q131 -15 82 -4Z" />
<glyph unicode="6" glyph-name="six" horiz-adv-x="609" d="M159 -15T103 41T46 199Q46 239 55 284Q98 492 207 603T477 714Q532 714 573 702L554 616Q523 631 468 631Q254 631 178 374Q216 412 269 431T382 451Q434 451 476 430T542 368T567 274Q567 249 561
222Q538 115 460 50T254 -15Q159 -15 103 41ZM345 64T394 105T459 219Q464 240 464 265Q464 371 336 371Q270 371 217 329T149 217Q144 194 144 177Q144 127 175 96T271 64Q345 64 394 105Z" />
<glyph unicode="7" glyph-name="seven" horiz-adv-x="545" d="M486 613H115L133 699H608L592 624L179 0H79L486 613Z" />
<glyph unicode="8" glyph-name="eight" horiz-adv-x="602" d="M146 -15T88 26T30 144Q30 163 35 191Q49 258 94 303T200 365Q165 381 146 412T126 484Q126 504 130 523Q149 611 222 662T402 714Q491 714 544 674T597 563Q597 542 593 523Q581 468 545 427T455
365Q500 352 526 319T552 235Q552 218 547 191Q526 92 446 39T247 -15Q146 -15 88 26ZM394 396T438 428T493 514Q497 531 497 550Q497 636 386 636Q341 636 304 617T245 563T224 485Q224 443 252 420T335 396Q394 396 438 428ZM335 59T384 96T447 198Q451 222 451
232Q451 280 418 306T321 332Q252 332 202 296T138 198Q133 175 133 159Q133 111 166 85T263 59Q335 59 384 96Z" />
<glyph unicode="9" glyph-name="nine" horiz-adv-x="609" d="M123 -15T84 -3L102 82Q138 67 189 67Q404 67 479 324Q441 286 389 267T276 248Q224 248 182 269T115 331T90 425Q90 450 96 477Q111 545 152 599T258 683T402 714Q498 714 555 660T612 505Q612 462
602 415Q510 -15 179 -15Q123 -15 84 -3ZM386 328T439 370T508 481Q512 498 512 520Q512 571 481 602T385 634Q315 634 264 592T198 480Q193 453 193 436Q193 384 225 356T320 328Q386 328 439 370Z" />
<glyph unicode=":" glyph-name="colon" horiz-adv-x="200" d="M108 371T96 383T84 415Q84 442 104 462T152 482Q171 482 183 470T196 438Q196 412 175 392T128 371Q108 371 96 383ZM34 20T22 32T9 64Q9 91 30 111T77 131Q96 131 108 119T121 87Q121 61 101 41T54
20Q34 20 22 32Z" />
<glyph unicode=";" glyph-name="semicolon" horiz-adv-x="277" d="M181 371T169 383T157 415Q157 442 177 462T225 482Q244 482 256 470T269 438Q269 412 248 392T201 371Q181 371 169 383ZM87 53H193L55 -148H-37L87 53Z" />
<glyph unicode="&lt;" glyph-name="less" horiz-adv-x="544" d="M56 287L71 360L572 583L551 478L188 320L484 162L462 64L56 287Z" />
<glyph unicode="=" glyph-name="equal" horiz-adv-x="524" d="M91 454H525L508 372H74L91 454ZM49 258H483L466 177H32L49 258Z" />
<glyph unicode="&gt;" glyph-name="greater" horiz-adv-x="544" d="M30 168L391 326L97 484L118 583L525 360L510 287L8 64L30 168Z" />
<glyph unicode="?" glyph-name="question" horiz-adv-x="515" d="M162 220Q175 282 207 322T302 401Q348 429 371 445T410 482T432 531Q435 545 435 555Q435 628 313 628Q213 628 119 588L138 676Q233 714 331 714Q422 714 479 675T536 567Q536 548 532 531Q522
479 487 443T385 363Q337 333 315 316T280 277T260 219L256 199H158L162 220ZM139 -15T126 -2T113 31Q113 60 135 81T185 103Q207 103 220 90T234 56Q234 27 211 6T160 -15Q139 -15 126 -2Z" />
<glyph unicode="@" glyph-name="at" horiz-adv-x="910" d="M228 -76T137 -6T45 196Q45 236 54 282Q81 410 153 507T336 659T583 714Q736 714 819 647T903 457Q903 421 893 371Q868 254 811 182T660 109Q623 109 596 128T565 181Q535 146 493 128T402 109Q342 109
302 143T262 241Q262 259 267 286Q290 391 361 457T543 524Q583 524 622 516T690 492L628 260Q624 245 624 230Q624 206 637 194T673 181Q721 181 751 230T801 371Q812 423 812 461Q812 550 754 592T566 635Q462 635 375 593T229 470T146 282Q137 237 137 200Q137
1 400 1Q503 1 596 30L580 -44Q490 -76 383 -76Q228 -76 137 -6ZM476 183T508 210T552 277L597 439Q567 450 525 450Q466 450 421 406T361 293Q355 266 355 246Q355 214 372 199T427 183Q476 183 508 210Z" />
<glyph unicode="A" glyph-name="A" horiz-adv-x="746" d="M422 699H520L651 0H550L516 174H207L103 0H-5L422 699ZM507 259L450 586L255 259H507Z" />
<glyph unicode="B" glyph-name="B" horiz-adv-x="649" d="M163 699H484Q558 699 601 662T645 560Q645 538 639 511Q627 459 595 420T518 361Q558 348 579 317T601 242Q601 223 596 198Q576 104 512 52T353 0H15L163 699ZM407 399Q456 399 490 426T535 506Q540
531 540 545Q540 583 517 599T446 616H247L201 399H407ZM347 83Q412 83 445 108T493 198Q498 223 498 238Q498 279 471 297T387 315H183L134 83H347Z" />
<glyph unicode="C" glyph-name="C" horiz-adv-x="710" d="M276 -15T208 19T100 117T60 266Q60 306 69 349Q92 459 154 541T310 669T516 714Q660 714 742 641L721 543Q650 620 505 620Q377 620 288 547T172 349Q164 314 164 275Q164 181 222 129T390 77Q464 77
526 96T648 159L627 60Q521 -15 361 -15Q276 -15 208 19Z" />
<glyph unicode="D" glyph-name="D" horiz-adv-x="703" d="M163 699H388Q533 699 612 627T691 432Q691 396 683 353Q650 177 533 89T226 0H15L163 699ZM243 85Q383 85 467 154T580 353Q589 397 589 434Q589 613 371 613H247L135 85H243Z" />
<glyph unicode="E" glyph-name="E" horiz-adv-x="566" d="M163 699H624L606 613H247L200 392H468L450 307H182L135 85H494L476 0H15L163 699Z" />
<glyph unicode="F" glyph-name="F" horiz-adv-x="551" d="M163 699H624L606 613H247L199 390H467L450 309H182L117 0H15L163 699Z" />
<glyph unicode="G" glyph-name="G" horiz-adv-x="716" d="M272 -15T204 18T97 115T59 262Q59 305 69 349Q92 458 156 541T314 669T516 714Q590 714 645 697T742 642L721 544Q683 583 632 601T505 620Q426 620 356 587T238 493T172 349Q163 307 163 271Q163 179
220 128T386 77Q432 77 473 86T543 114L582 297H449L466 380H701L633 60Q527 -15 361 -15Q272 -15 204 18Z" />
<glyph unicode="H" glyph-name="H" horiz-adv-x="699" d="M163 699H265L201 399H566L630 699H732L584 0H482L548 313H183L117 0H15L163 699Z" />
<glyph unicode="I" glyph-name="I" horiz-adv-x="233" d="M163 699H266L118 0H15L163 699Z" />
<glyph unicode="J" glyph-name="J" horiz-adv-x="373" d="M49 -15T20 -10T-25 2L-7 89Q7 83 30 79T73 75Q129 75 158 99T198 175L309 699H411L298 168Q279 79 224 32T77 -15Q49 -15 20 -10Z" />
<glyph unicode="K" glyph-name="K" horiz-adv-x="670" d="M163 699H265L117 0H15L163 699ZM197 356L589 699H713L319 354L583 0H461L197 356Z" />
<glyph unicode="L" glyph-name="L" horiz-adv-x="546" d="M163 699H265L135 85H489L471 0H15L163 699Z" />
<glyph unicode="M" glyph-name="M" horiz-adv-x="832" d="M163 699H262L395 154L760 699H865L717 0H618L723 497L391 0H341L218 497L113 0H15L163 699Z" />
<glyph unicode="N" glyph-name="N" horiz-adv-x="686" d="M163 699H260L504 172L616 699H719L571 0H473L229 527L117 0H15L163 699Z" />
<glyph unicode="O" glyph-name="O" horiz-adv-x="826" d="M275 -15T207 20T99 119T60 268Q60 307 69 349Q92 457 156 540T313 668T514 714Q600 714 668 679T775 580T814 431Q814 393 805 349Q782 241 719 159T562 31T359 -15Q275 -15 207 20ZM453 77T520 110T636
205T702 349Q710 385 710 425Q710 517 655 568T494 620Q419 620 352 587T237 492T172 349Q163 309 163 274Q163 181 219 129T379 77Q453 77 520 110Z" />
<glyph unicode="P" glyph-name="P" horiz-adv-x="603" d="M163 699H432Q525 699 580 654T635 530Q635 510 630 482Q609 376 532 322T340 267H173L117 0H15L163 699ZM347 352Q417 352 464 381T527 482Q533 509 533 529Q533 576 502 594T403 613H247L191 352H347Z" />
<glyph unicode="Q" glyph-name="Q" horiz-adv-x="817" d="M282 0T210 32T99 125T60 269Q60 308 69 351Q92 459 156 541T313 669T514 714Q603 714 671 680T777 584T815 437Q815 401 805 351Q787 266 734 196T609 88H760L742 0H381Q282 0 210 32ZM459 93T525 123T638
211T701 351Q710 393 710 430Q710 521 656 570T494 620Q420 620 353 587T237 493T172 351Q163 311 163 275Q163 186 218 140T382 93Q459 93 525 123Z" />
<glyph unicode="R" glyph-name="R" horiz-adv-x="623" d="M163 699H444Q535 699 586 657T637 539Q637 514 631 487Q614 408 564 355T431 284L525 0H419L328 276H175L117 0H15L163 699ZM355 362Q422 362 468 393T528 487Q533 508 533 531Q533 576 505 594T417 613H247L193
362H355Z" />
<glyph unicode="S" glyph-name="S" horiz-adv-x="561" d="M145 -15T90 -5T0 24L19 116Q106 71 217 71Q373 71 395 176Q398 191 398 202Q398 228 383 246T341 278T255 318Q181 349 145 389T108 483Q108 502 113 527Q130 612 204 663T390 714Q447 714 491 705T575
676L556 588Q478 627 389 627Q317 627 274 601T220 527Q217 514 217 503Q217 467 246 445T352 388Q435 352 472 317T509 225Q509 203 503 176Q484 84 410 35T205 -15Q145 -15 90 -5Z" />
<glyph unicode="T" glyph-name="T" horiz-adv-x="587" d="M322 613H105L123 699H660L642 613H425L295 0H192L322 613Z" />
<glyph unicode="U" glyph-name="U" horiz-adv-x="697" d="M180 -15T119 39T57 190Q57 221 65 261L158 699H260L166 257Q159 226 159 197Q159 135 197 106T315 77Q401 77 460 122T539 257L633 699H735L642 261Q584 -15 295 -15Q180 -15 119 39Z" />
<glyph unicode="V" glyph-name="V" horiz-adv-x="746" d="M143 699H248L349 139L688 699H799L372 0H274L143 699Z" />
<glyph unicode="W" glyph-name="W" horiz-adv-x="1001" d="M143 699H249L292 168L559 699H639L679 168L948 699H1054L702 0H608L565 528L299 0H199L143 699Z" />
<glyph unicode="X" glyph-name="X" horiz-adv-x="732" d="M332 355L153 699H270L408 435L658 699H775L449 355L636 0H519L374 276L113 0H-4L332 355Z" />
<glyph unicode="Y" glyph-name="Y" horiz-adv-x="700" d="M305 265L143 699H249L372 362L642 699H753L404 265L348 0H249L305 265Z" />
<glyph unicode="Z" glyph-name="Z" horiz-adv-x="618" d="M9 69L512 613H134L152 699H654L639 629L138 85H541L523 0H-5L9 69Z" />
<glyph unicode="[" glyph-name="bracketleft" horiz-adv-x="305" d="M162 787H387L369 701H246L94 -11H217L199 -96H-26L162 787Z" />
<glyph unicode="\" glyph-name="backslash" horiz-adv-x="474" d="M146 714H245L379 0H280L146 714Z" />
<glyph unicode="]" glyph-name="bracketright" horiz-adv-x="305" d="M-18 -11H104L256 701H134L152 787H377L189 -96H-36L-18 -11Z" />
<glyph unicode="^" glyph-name="asciicircum" horiz-adv-x="548" d="M336 719H416L535 390H440L359 622L177 390H77L336 719Z" />
<glyph unicode="_" glyph-name="underscore" horiz-adv-x="487" d="M-5 0H392L373 -88H-24L-5 0Z" />
<glyph unicode="`" glyph-name="grave" horiz-adv-x="265" d="M152 742H259L291 570H199L152 742Z" />
<glyph unicode="a" glyph-name="a" horiz-adv-x="660" d="M185 -15T139 9T66 77T39 180Q39 208 45 239Q61 314 106 372T215 462T352 495Q481 495 532 416L546 480H647L545 0H447L461 70Q412 26 360 6T243 -15Q185 -15 139 9ZM345 65T398 97T483 185L506 293Q501
348 460 381T357 414Q283 414 224 366T147 239Q140 204 140 182Q140 65 283 65Q345 65 398 97Z" />
<glyph unicode="b" glyph-name="b" horiz-adv-x="660" d="M244 -15T201 5T127 70L113 0H15L172 739H273L204 416Q245 455 301 475T418 495Q476 495 522 471T595 401T622 298Q622 276 615 239Q590 122 508 54T309 -15Q244 -15 201 5ZM378 65T437 113T513 239Q520
268 520 296Q520 414 377 414Q316 414 262 381T178 293L155 185Q162 130 201 98T303 65Q378 65 437 113Z" />
<glyph unicode="c" glyph-name="c" horiz-adv-x="547" d="M164 -15T102 37T39 180Q39 208 45 239Q71 359 157 427T375 495Q485 495 542 452L524 369Q469 414 367 414Q287 414 227 369T147 239Q141 209 141 184Q141 124 178 95T291 65Q392 65 476 113L458 31Q418
7 371 -4T264 -15Q164 -15 102 37Z" />
<glyph unicode="d" glyph-name="d" horiz-adv-x="660" d="M184 -15T138 8T65 76T38 179Q38 202 45 239Q61 315 104 373T212 463T352 495Q481 495 532 416L601 739H702L545 0H447L461 70Q412 26 360 6T243 -15Q184 -15 138 8ZM345 65T398 97T483 185L506 293Q501
348 460 381T357 414Q277 414 221 367T147 239Q142 218 142 191Q142 131 178 98T283 65Q345 65 398 97Z" />
<glyph unicode="e" glyph-name="e" horiz-adv-x="608" d="M165 -15T102 35T38 178Q38 208 45 239Q71 359 150 427T360 495Q427 495 475 471T547 403T572 306Q572 279 566 250L555 200H133Q131 182 131 174Q131 117 173 91T304 65Q350 65 399 73T487 96L470 15Q435
2 381 -6T275 -15Q165 -15 102 35ZM475 271Q479 297 479 308Q479 414 340 414Q264 414 214 375T148 271H475Z" />
<glyph unicode="f" glyph-name="f" horiz-adv-x="353" d="M133 402H60L77 480H150L170 574Q205 744 379 744Q420 744 453 732L435 648Q411 661 380 661Q333 661 306 639T269 568L251 480H371L354 402H234L149 0H48L133 402Z" />
<glyph unicode="g" glyph-name="g" horiz-adv-x="660" d="M168 -230T123 -222T49 -199L67 -116Q135 -150 234 -150Q327 -150 378 -109T446 13L457 64Q375 -15 246 -15Q187 -15 140 9T67 78T40 182Q40 210 46 240Q70 357 151 426T352 495Q419 495 461 476T534 411L549
480H647L550 24Q523 -101 444 -165T217 -230Q168 -230 123 -222ZM345 65T399 98T483 186L506 294Q499 350 459 382T357 414Q278 414 222 367T148 240Q142 215 142 191Q142 132 178 99T283 65Q345 65 399 98Z" />
<glyph unicode="h" glyph-name="h" horiz-adv-x="600" d="M172 739H273L203 414Q289 495 405 495Q481 495 520 458T560 356Q560 328 555 307L490 0H389L452 297Q457 318 457 343Q457 379 436 396T364 414Q316 414 270 392T184 323L116 0H15L172 739Z" />
<glyph unicode="i" glyph-name="i" horiz-adv-x="250" d="M174 574T161 587T148 620Q148 649 170 670T221 692Q243 692 256 679T270 645Q270 616 248 595T196 574Q174 574 161 587ZM125 480H228L126 0H23L125 480Z" />
<glyph unicode="j" glyph-name="j" horiz-adv-x="250" d="M175 574T162 587T148 620Q148 649 170 670T222 692Q244 692 257 679T270 645Q270 616 248 595T197 574Q175 574 162 587ZM-138 -231T-166 -220L-149 -137Q-125 -149 -91 -149Q-47 -149 -24 -128T11 -58L126
480H228L112 -65Q94 -151 43 -191T-93 -231Q-138 -231 -166 -220Z" />
<glyph unicode="k" glyph-name="k" horiz-adv-x="569" d="M172 739H273L116 0H15L172 739ZM168 243L440 480H563L290 243L484 0H361L168 243Z" />
<glyph unicode="l" glyph-name="l" horiz-adv-x="231" d="M172 739H273L116 0H15L172 739Z" />
<glyph unicode="m" glyph-name="m" horiz-adv-x="867" d="M117 480H213L198 411Q241 453 288 474T382 495Q486 495 507 416Q548 455 598 475T696 495Q765 495 797 463T830 374Q830 349 824 319L757 0H659L724 306Q730 335 730 355Q730 387 712 400T652 414Q573
414 511 348Q510 335 503 299L440 0H342L407 306Q413 335 413 355Q413 387 397 400T343 414Q304 414 263 393T183 328L114 0H15L117 480Z" />
<glyph unicode="n" glyph-name="n" horiz-adv-x="600" d="M117 480H215L200 411Q244 454 297 474T405 495Q481 495 520 456T560 353Q560 334 555 307L490 0H389L452 297Q458 326 458 347Q458 382 437 398T364 414Q316 414 270 392T184 323L116 0H15L117 480Z" />
<glyph unicode="o" glyph-name="o" horiz-adv-x="637" d="M159 -15T99 36T38 177Q38 208 45 239Q61 316 106 374T220 463T373 495Q478 495 538 443T599 300Q599 270 592 239Q567 121 480 53T264 -15Q159 -15 99 36ZM359 65T415 113T488 239Q494 269 494 295Q494
414 355 414Q277 414 221 367T148 239Q142 211 142 186Q142 128 176 97T281 65Q359 65 415 113Z" />
<glyph unicode="p" glyph-name="p" horiz-adv-x="660" d="M117 480H215L199 409Q292 495 418 495Q511 495 567 443T623 302Q623 271 616 240Q600 164 557 106T450 17T309 -15Q188 -15 129 64L69 -219H-32L117 480ZM378 65T437 113T514 240Q519 261 519 289Q519
348 483 381T377 414Q316 414 263 382T178 294L155 186Q161 130 199 98T303 65Q378 65 437 113Z" />
<glyph unicode="q" glyph-name="q" horiz-adv-x="660" d="M457 64Q416 25 360 5T243 -15Q184 -15 138 9T65 77T39 180Q39 211 46 240Q62 316 105 374T213 463T352 495Q478 495 533 409L549 480H647L498 -219H397L457 64ZM344 65T399 98T483 186L506 294Q498 350
458 382T357 414Q278 414 222 367T148 240Q142 213 142 189Q142 130 177 98T283 65Q344 65 399 98Z" />
<glyph unicode="r" glyph-name="r" horiz-adv-x="399" d="M117 480H215L196 394Q235 438 294 459T426 480L409 401Q332 401 272 376T179 297L116 0H15L117 480Z" />
<glyph unicode="s" glyph-name="s" horiz-adv-x="489" d="M138 -15T85 -3T4 31L22 117Q56 93 104 79T200 65Q254 65 282 78T316 120Q318 130 318 134Q318 150 307 161T273 181T201 206Q134 227 101 254T67 326Q67 340 70 355Q101 495 301 495Q349 495 392 486T461
461L444 377Q419 394 378 404T293 414Q240 414 210 401T172 355Q170 345 170 342Q170 326 181 316T216 298T290 274Q359 254 391 226T423 154Q423 145 419 121Q390 -15 188 -15Q138 -15 85 -3Z" />
<glyph unicode="t" glyph-name="t" horiz-adv-x="374" d="M135 -15T104 13T73 96Q73 119 79 146L133 402H60L77 480H150L180 624H282L252 480H370L353 402H235L182 153Q177 126 177 113Q177 87 191 76T241 65Q256 65 275 68T310 78L293 -2Q253 -15 196 -15Q135
-15 104 13Z" />
<glyph unicode="u" glyph-name="u" horiz-adv-x="600" d="M126 -15T84 25T42 131Q42 149 47 176L112 480H213L149 180Q144 155 144 139Q144 101 166 83T239 65Q340 65 417 156L486 480H587L485 0H387L401 68Q318 -15 202 -15Q126 -15 84 25Z" />
<glyph unicode="v" glyph-name="v" horiz-adv-x="586" d="M97 480H201L268 135L483 480H593L287 0H199L97 480Z" />
<glyph unicode="w" glyph-name="w" horiz-adv-x="818" d="M97 480H200L232 124L415 480H506L537 124L721 480H825L567 0H473L438 358L251 0H150L97 480Z" />
<glyph unicode="x" glyph-name="x" horiz-adv-x="617" d="M254 251L115 480H230L326 321L491 480H606L369 251L522 0H408L296 181L109 0H-5L254 251Z" />
<glyph unicode="y" glyph-name="y" horiz-adv-x="587" d="M118 -230T73 -222T-1 -199L17 -116Q85 -150 184 -150Q274 -150 318 -111T386 13L404 83Q321 0 205 0Q129 0 87 40T45 146Q45 164 50 191L112 480H213L152 195Q147 170 147 154Q147 116 169 98T242 80Q343
80 420 171L486 480H587L490 24Q463 -102 388 -166T167 -230Q118 -230 73 -222Z" />
<glyph unicode="z" glyph-name="z" horiz-adv-x="499" d="M8 65L353 402H86L103 480H496L481 414L137 78H420L404 0H-5L8 65Z" />
<glyph unicode="{" glyph-name="braceleft" horiz-adv-x="343" d="M101 -97T84 -82T66 -34Q66 -17 70 -1L118 225Q121 240 121 252Q121 301 68 301H48L67 389H87Q153 389 169 465L217 691Q227 739 254 763T321 787H415L397 701H360Q339 701 328 691T312 656L268
446Q248 360 179 340V338Q226 323 226 269Q226 249 222 232L180 34Q177 22 177 14Q177 1 184 -5T208 -11H245L227 -97H133Q101 -97 84 -82Z" />
<glyph unicode="|" glyph-name="bar" horiz-adv-x="192" d="M167 812H269L66 -144H-36L167 812Z" />
<glyph unicode="}" glyph-name="braceright" horiz-adv-x="343" d="M-8 -11H29Q50 -11 61 -1T77 34L121 242Q139 329 210 348V350Q162 367 162 419Q162 433 167 456L209 656Q212 668 212 676Q212 689 205 695T181 701H144L162 787H256Q322 787 322 725Q322 707
318 691L270 465Q267 452 267 439Q267 389 320 389H340L321 301H301Q236 301 219 225L171 -1Q151 -97 68 -97H-26L-8 -11Z" />
<glyph unicode="~" glyph-name="asciitilde" horiz-adv-x="550" d="M371 275T346 283T288 306Q252 321 229 328T178 336Q143 336 113 322T53 276L73 371Q92 396 125 409T196 423Q226 423 251 415T313 391Q348 376 370 369T418 362Q491 362 544 422L524 327Q504
302 471 289T400 275Q371 275 346 283Z" />
<glyph unicode="&#xa0;" glyph-name="uni00A0" horiz-adv-x="370" />
<glyph unicode="&#xa1;" glyph-name="exclamdown" horiz-adv-x="209" d="M124 432T111 445T98 478Q98 507 120 528T170 550Q192 550 205 537T219 503Q219 474 197 453T145 432Q124 432 111 445ZM76 332H174L68 -167H-30L76 332Z" />
<glyph unicode="&#xa2;" glyph-name="cent" horiz-adv-x="547" d="M221 -13Q135 -3 87 45T38 175Q38 207 45 239Q67 345 144 412T328 492L347 580H436L417 493Q495 487 542 452L524 369Q478 407 400 413L326 66Q409 74 476 113L458 31Q395 -7 309 -13L291 -101H202L221
-13ZM310 408Q248 395 205 352T147 239Q141 214 141 191Q141 142 167 112T238 70L310 408Z" />
<glyph unicode="&#xa3;" glyph-name="sterling" horiz-adv-x="491" d="M12 82H92L146 336H72L89 418H163L188 532Q206 618 272 666T422 714Q462 714 498 702L480 619Q458 630 425 630Q370 630 336 604T291 527L267 418H442L425 336H250L196 82H413L396 0H-5L12 82Z" />
<glyph unicode="&#xa4;" glyph-name="currency" horiz-adv-x="590" d="M17 107L116 170Q101 199 101 234Q101 256 105 273Q118 333 160 377L88 440L144 495L216 425Q274 466 344 466Q410 466 453 425L556 495L588 440L490 377Q505 344 505 309Q505 289 501 273Q489
218 446 170L517 107L462 52L388 120Q329 80 262 80Q195 80 152 120L50 52L17 107ZM327 156T367 190T419 273Q423 295 423 305Q423 344 400 367T328 391Q279 391 239 357T187 273Q184 257 184 243Q184 204 208 180T278 156Q327 156 367 190Z" />
<glyph unicode="&#xa5;" glyph-name="yen" horiz-adv-x="701" d="M271 105H133L147 174H285L301 247H163L177 315H286L143 699H249L372 362L642 699H753L445 315H554L540 247H401L385 174H524L510 105H371L349 0H249L271 105Z" />
<glyph unicode="&#xa6;" glyph-name="brokenbar" horiz-adv-x="193" d="M167 812H270L189 429H86L167 812ZM45 238H148L67 -144H-36L45 238Z" />
<glyph unicode="&#xa7;" glyph-name="section" horiz-adv-x="561" d="M112 -170T57 -160T-33 -131L-14 -39Q73 -84 184 -84Q261 -84 305 -57T360 21Q363 36 363 48Q363 74 349 92T306 125T222 164Q146 196 111 235T75 328Q75 345 80 372Q89 416 116 447Q108 468
108 488Q108 504 113 527Q124 582 163 624T261 690T390 714Q447 714 491 705T575 676L556 587Q516 608 476 617T386 627Q312 627 266 593T219 504Q219 470 249 445T351 385Q410 357 442 338T491 292T509 226Q509 203 503 176Q495 138 469 100Q474 80 474 60Q474
40 470 21Q451 -70 375 -120T172 -170Q112 -170 57 -160ZM419 172T422 184Q424 192 424 206Q424 243 394 267T293 321Q254 337 222 357T178 396Q169 382 164 360Q162 353 162 340Q162 306 191 281T285 228Q336 205 366 187T410 149Q419 172 422 184Z" />
<glyph unicode="&#xa8;" glyph-name="dieresis" horiz-adv-x="433" d="M157 585T144 598T130 631Q130 658 152 679T202 701Q222 701 235 688T248 655Q248 628 226 607T177 585Q157 585 144 598ZM384 585T371 598T357 631Q357 658 379 679T429 701Q449 701 462
688T475 655Q475 628 453 607T404 585Q384 585 371 598Z" />
<glyph unicode="&#xa9;" glyph-name="copyright" horiz-adv-x="823" d="M270 -15T202 19T97 117T59 263Q59 299 69 349Q91 456 157 539T317 668T513 714Q601 714 668 680T773 582T811 434Q811 394 802 349Q779 242 713 160T554 31T358 -15Q270 -15 202 19ZM454
72T523 105T642 201T710 349Q718 389 718 418Q718 515 657 570T495 626Q416 626 347 593T228 497T161 349Q153 309 153 278Q153 181 214 127T377 72Q454 72 523 105ZM298 118T247 163T195 289Q195 311 202 348Q217 419 258 471T357 550T483 578Q584 578 634 539L618
463Q569 504 478 504Q405 504 356 465T289 348Q284 320 284 302Q284 248 317 221T409 193Q457 193 497 203T576 237L560 161Q486 118 384 118Q298 118 247 163Z" />
<glyph unicode="&#xaa;" glyph-name="ordfeminine" horiz-adv-x="423" d="M156 349T124 373T91 441Q91 453 94 466Q105 522 149 553T259 585Q327 585 371 557L375 577Q378 591 378 602Q378 629 358 641T289 653Q224 653 171 631L183 691Q207 701 242 707T311 714Q381
714 417 686T453 607Q453 589 449 573L404 360H334L341 395Q314 372 282 361T206 349Q156 349 124 373ZM270 406T300 419T349 456L359 499Q321 528 262 528Q182 528 170 466Q168 454 168 448Q168 426 184 416T235 406Q270 406 300 419Z" />
<glyph unicode="&#xab;" glyph-name="guillemotleft" horiz-adv-x="599" d="M60 308L66 338L340 535L377 465L169 317L314 170L250 112L60 308ZM287 308L293 338L567 535L604 465L396 317L541 170L477 112L287 308Z" />
<glyph unicode="&#xac;" glyph-name="logicalnot" horiz-adv-x="440" d="M304 258H49L66 338H416L373 134H278L304 258Z" />
<glyph unicode="&#xad;" glyph-name="uni00AD" horiz-adv-x="409" d="M67 339H386L368 256H49L67 339Z" />
<glyph unicode="&#xae;" glyph-name="registered" horiz-adv-x="823" d="M270 -15T202 19T97 117T59 263Q59 299 69 349Q91 456 157 539T317 668T513 714Q601 714 668 680T773 582T811 434Q811 394 802 349Q779 242 713 160T554 31T358 -15Q270 -15 202 19ZM454
72T523 105T642 201T710 349Q718 389 718 418Q718 515 657 570T495 626Q416 626 347 593T228 497T161 349Q153 309 153 278Q153 181 214 127T377 72Q454 72 523 105ZM331 575H508Q570 575 604 551T638 478Q638 459 634 442Q623 393 587 359T495 314L549 128H468L414
310H353L315 128H236L331 575ZM458 373Q503 373 528 389T560 442Q563 456 563 467Q563 493 545 502T487 511H396L367 373H458Z" />
<glyph unicode="&#xaf;" glyph-name="overscore" horiz-adv-x="401" d="M138 673H449L434 604H123L138 673Z" />
<glyph unicode="&#xb0;" glyph-name="degree" horiz-adv-x="378" d="M181 439T148 472T115 554Q115 599 141 639T208 703T293 727Q344 727 376 695T409 613Q409 598 406 583Q398 544 372 511T308 459T232 439Q181 439 148 472ZM281 506T310 534T340 599Q340 625
323 642T278 659Q242 659 213 631T183 567Q183 541 200 524T245 506Q281 506 310 534Z" />
<glyph unicode="&#xb1;" glyph-name="plusminus" horiz-adv-x="409" d="M169 266H51L69 349H187L212 467H294L269 349H388L370 266H251L226 147H144L169 266ZM12 82H331L314 0H-5L12 82Z" />
<glyph unicode="&#xb2;" glyph-name="uni00B2" horiz-adv-x="341" d="M84 420L170 483L191 498Q250 540 272 562T294 613Q294 629 283 636T248 644Q224 644 193 636T140 614L154 681Q176 693 208 701T266 709Q316 709 344 686T373 625Q373 619 371 605Q366 579
353 560T321 526T260 480L190 430H337L324 370H73L84 420Z" />
<glyph unicode="&#xb3;" glyph-name="uni00B3" horiz-adv-x="345" d="M112 360T75 378L88 438Q105 428 132 423T185 417Q257 417 268 462Q269 466 269 474Q269 491 254 499T204 507H158L170 564H215Q281 564 290 607Q291 610 291 615Q291 650 232 650Q183 650
134 624L147 683Q196 709 265 709Q315 709 344 688T373 632Q373 627 371 615Q360 559 298 536Q349 526 349 478Q349 471 347 457Q337 412 295 386T188 360Q112 360 75 378Z" />
<glyph unicode="&#xb4;" glyph-name="acute" horiz-adv-x="265" d="M224 753H330L210 581H118L224 753Z" />
<glyph unicode="&#xb6;" glyph-name="paragraph" horiz-adv-x="741" d="M358 266H297Q205 266 151 312T96 445Q96 477 103 511Q129 633 213 697T415 762H807L617 -134H514L686 676H547L375 -134H273L358 266Z" />
<glyph unicode="&#xb7;" glyph-name="middot" horiz-adv-x="185" d="M78 247T67 257T56 284Q56 307 74 325T114 343Q131 343 142 333T153 305Q153 281 135 264T94 247Q78 247 67 257Z" />
<glyph unicode="&#xb8;" glyph-name="cedilla" horiz-adv-x="306" d="M-33 -248T-55 -237L-44 -179Q-34 -184 -19 -187T12 -190Q75 -190 85 -144Q86 -140 86 -133Q86 -89 -4 -89L49 0H141L107 -56Q181 -66 181 -127Q181 -181 137 -214T24 -248Q-33 -248 -55 -237Z" />
<glyph unicode="&#xb9;" glyph-name="uni00B9" horiz-adv-x="233" d="M212 620L113 558L128 630L235 699H306L236 370H159L212 620Z" />
<glyph unicode="&#xba;" glyph-name="ordmasculine" horiz-adv-x="482" d="M191 348T147 385T102 488Q102 506 107 531Q125 614 188 664T342 714Q416 714 460 676T504 573Q504 556 499 531Q481 446 418 397T264 348Q191 348 147 385ZM330 411T369 444T419 531Q423
548 423 568Q423 608 400 629T329 650Q276 650 238 618T187 531Q183 515 183 496Q183 456 207 434T278 411Q330 411 369 444Z" />
<glyph unicode="&#xbb;" glyph-name="guillemotright" horiz-adv-x="599" d="M32 182L239 329L95 477L158 535L348 338L342 308L68 112L32 182ZM259 182L466 329L322 477L385 535L575 338L569 308L295 112L259 182Z" />
<glyph unicode="&#xbc;" glyph-name="onequarter" horiz-adv-x="715" d="M591 699H695L160 0H56L591 699ZM212 620L113 558L128 630L235 699H306L236 370H159L212 620ZM511 72H353L364 126L558 329H642L600 129H647L635 72H588L573 0H496L511 72ZM534 129L561
255L438 129H534Z" />
<glyph unicode="&#xbd;" glyph-name="onehalf" horiz-adv-x="738" d="M591 699H695L160 0H56L591 699ZM212 620L113 558L128 630L235 699H306L236 370H159L212 620ZM400 50L488 113Q544 153 564 170T598 205T612 245Q612 275 565 275Q541 275 510 267T457 245L471
312Q492 324 524 332T584 340Q635 340 662 317T690 257Q690 243 688 236Q682 210 669 191T636 156T576 110L507 60H655L643 0H390L400 50Z" />
<glyph unicode="&#xbe;" glyph-name="threequarters" horiz-adv-x="735" d="M112 360T75 378L88 438Q105 428 132 423T185 417Q257 417 268 462Q269 466 269 474Q269 491 254 499T204 507H158L170 564H215Q281 564 290 607Q291 610 291 615Q291 650 232 650Q183
650 134 624L147 683Q196 709 265 709Q314 709 343 688T373 633Q373 621 371 615Q364 587 347 568T298 536Q349 526 349 478Q349 471 347 457Q337 412 295 386T188 360Q112 360 75 378ZM611 699H715L180 0H76L611 699ZM531 72H373L384 126L578 329H662L620 129H667L655
72H608L593 0H516L531 72ZM554 129L581 255L458 129H554Z" />
<glyph unicode="&#xbf;" glyph-name="questiondown" horiz-adv-x="515" d="M319 432T306 445T293 478Q293 507 315 528T366 550Q388 550 401 537T415 503Q415 474 393 453T341 432Q319 432 306 445ZM105 -179T48 -139T-9 -31Q-9 -12 -5 4Q6 56 41 93T143 171Q190
201 212 219T246 258T266 315L271 335H369L364 314Q351 253 320 213T226 134Q179 105 156 89T117 52T95 4Q93 -4 93 -19Q93 -94 214 -94Q314 -94 408 -54L389 -142Q346 -159 296 -169T195 -179Q105 -179 48 -139Z" />
<glyph unicode="&#xc0;" glyph-name="Agrave" horiz-adv-x="746" d="M384 913H491L523 741H430L384 913ZM422 699H520L651 0H550L516 174H207L103 0H-5L422 699ZM507 259L450 586L255 259H507Z" />
<glyph unicode="&#xc1;" glyph-name="Aacute" horiz-adv-x="746" d="M544 913H651L531 741H439L544 913ZM422 699H520L651 0H550L516 174H207L103 0H-5L422 699ZM507 259L450 586L255 259H507Z" />
<glyph unicode="&#xc2;" glyph-name="Acircumflex" horiz-adv-x="746" d="M471 907H560L666 741H567L506 848L399 741H294L471 907ZM422 699H520L651 0H550L516 174H207L103 0H-5L422 699ZM507 259L450 586L255 259H507Z" />
<glyph unicode="&#xc3;" glyph-name="Atilde" horiz-adv-x="746" d="M309 828Q349 871 416 871Q438 871 457 865T506 846Q530 834 549 828T591 821Q621 821 646 832T697 872L679 786Q642 744 574 744Q549 744 528 750T481 770Q456 782 439 788T400 794Q371 794
345 782T291 742L309 828ZM422 699H520L651 0H550L516 174H207L103 0H-5L422 699ZM507 259L450 586L255 259H507Z" />
<glyph unicode="&#xc4;" glyph-name="Adieresis" horiz-adv-x="746" d="M347 741T334 754T320 787Q320 814 342 835T392 857Q412 857 424 845T437 812Q437 784 416 763T367 741Q347 741 334 754ZM573 741T560 754T546 787Q546 814 569 835T619 857Q639 857 651
845T664 812Q664 784 643 763T594 741Q573 741 560 754ZM422 699H520L651 0H550L516 174H207L103 0H-5L422 699ZM507 259L450 586L255 259H507Z" />
<glyph unicode="&#xc5;" glyph-name="Aring" horiz-adv-x="746" d="M403 669Q385 681 376 700T366 743Q366 756 369 769Q380 818 419 851T510 885Q552 885 578 859T604 794Q604 781 601 769Q593 737 573 711T525 669L651 0H550L516 174H207L103 0H-5L403 669ZM498
714T519 735T540 782Q540 800 529 811T496 823Q474 823 455 807T431 769Q429 759 429 754Q429 736 440 725T473 714Q498 714 519 735ZM507 259L450 586L255 259H507Z" />
<glyph unicode="&#xc6;" glyph-name="AE" horiz-adv-x="922" d="M486 699H975L957 613H637L590 392H819L801 307H572L525 85H845L827 0H405L443 179H228L103 0H-5L486 699ZM460 259L534 607H526L286 259H460Z" />
<glyph unicode="&#xc7;" glyph-name="Ccedilla" horiz-adv-x="710" d="M252 -248T227 -237L240 -179Q249 -184 265 -187T295 -190Q359 -190 369 -144Q370 -140 370 -133Q370 -89 280 -89L324 -13Q248 -6 188 30T94 126T60 266Q60 306 69 349Q92 459 154 541T310
669T516 714Q660 714 742 641L721 543Q650 620 505 620Q377 620 288 547T172 349Q164 314 164 275Q164 181 222 129T390 77Q464 77 526 96T648 159L627 60Q540 -2 416 -13L390 -56Q463 -66 463 -127Q463 -181 420 -214T307 -248Q252 -248 227 -237Z" />
<glyph unicode="&#xc8;" glyph-name="Egrave" horiz-adv-x="571" d="M311 926H418L450 754H357L311 926ZM163 699H624L606 613H247L200 392H468L450 307H182L135 85H494L476 0H15L163 699Z" />
<glyph unicode="&#xc9;" glyph-name="Eacute" horiz-adv-x="566" d="M445 913H552L432 741H340L445 913ZM163 699H624L606 613H247L200 392H468L450 307H182L135 85H494L476 0H15L163 699Z" />
<glyph unicode="&#xca;" glyph-name="Ecircumflex" horiz-adv-x="571" d="M379 913H468L574 747H475L414 854L307 747H202L379 913ZM163 699H624L606 613H247L200 392H468L450 307H182L135 85H494L476 0H15L163 699Z" />
<glyph unicode="&#xcb;" glyph-name="Edieresis" horiz-adv-x="571" d="M261 751T248 764T234 797Q234 824 256 845T306 867Q326 867 338 855T351 822Q351 794 330 773T281 751Q261 751 248 764ZM487 751T474 764T460 797Q460 824 483 845T533 867Q553 867 565
855T578 822Q578 794 557 773T508 751Q487 751 474 764ZM163 699H624L606 613H247L200 392H468L450 307H182L135 85H494L476 0H15L163 699Z" />
<glyph unicode="&#xcc;" glyph-name="Igrave" horiz-adv-x="236" d="M132 913H239L271 741H178L132 913ZM164 699H267L119 0H16L164 699Z" />
<glyph unicode="&#xcd;" glyph-name="Iacute" horiz-adv-x="236" d="M284 913H391L271 741H179L284 913ZM164 699H267L119 0H16L164 699Z" />
<glyph unicode="&#xce;" glyph-name="Icircumflex" horiz-adv-x="236" d="M215 907H304L410 741H311L250 848L143 741H38L215 907ZM164 699H267L119 0H16L164 699Z" />
<glyph unicode="&#xcf;" glyph-name="Idieresis" horiz-adv-x="236" d="M91 741T78 754T64 787Q64 814 86 835T136 857Q156 857 168 845T181 812Q181 784 160 763T111 741Q91 741 78 754ZM317 741T304 754T290 787Q290 814 313 835T363 857Q383 857 395 845T408
812Q408 784 387 763T338 741Q317 741 304 754ZM164 699H267L119 0H16L164 699Z" />
<glyph unicode="&#xd0;" glyph-name="Eth" horiz-adv-x="727" d="M104 310H40L57 388H121L187 699H412Q557 699 636 627T715 432Q715 396 707 353Q674 177 557 89T250 0H39L104 310ZM267 85Q407 85 492 154T604 353Q614 401 614 434Q614 613 395 613H271L223 388H408L391
310H206L159 85H267Z" />
<glyph unicode="&#xd1;" glyph-name="Ntilde" horiz-adv-x="686" d="M290 828Q330 871 397 871Q419 871 438 865T487 846Q511 834 530 828T572 821Q602 821 627 832T678 872L660 786Q623 744 555 744Q530 744 509 750T462 770Q437 782 420 788T381 794Q352 794
326 782T272 742L290 828ZM163 699H260L504 172L616 699H719L571 0H473L229 527L117 0H15L163 699Z" />
<glyph unicode="&#xd2;" glyph-name="Ograve" horiz-adv-x="826" d="M438 913H545L577 741H484L438 913ZM275 -15T207 20T99 119T60 268Q60 307 69 349Q92 457 156 540T313 668T514 714Q600 714 668 679T775 580T814 431Q814 393 805 349Q782 241 719 159T562
31T359 -15Q275 -15 207 20ZM453 77T520 110T636 205T702 349Q710 385 710 425Q710 517 655 568T494 620Q419 620 352 587T237 492T172 349Q163 309 163 274Q163 181 219 129T379 77Q453 77 520 110Z" />
<glyph unicode="&#xd3;" glyph-name="Oacute" horiz-adv-x="826" d="M578 913H685L565 741H473L578 913ZM275 -15T207 20T99 119T60 268Q60 307 69 349Q92 457 156 540T313 668T514 714Q600 714 668 679T775 580T814 431Q814 393 805 349Q782 241 719 159T562
31T359 -15Q275 -15 207 20ZM453 77T520 110T636 205T702 349Q710 385 710 425Q710 517 655 568T494 620Q419 620 352 587T237 492T172 349Q163 309 163 274Q163 181 219 129T379 77Q453 77 520 110Z" />
<glyph unicode="&#xd4;" glyph-name="Ocircumflex" horiz-adv-x="826" d="M511 907H600L706 741H607L546 848L439 741H334L511 907ZM275 -15T207 20T99 119T60 268Q60 307 69 349Q92 457 156 540T313 668T514 714Q600 714 668 679T775 580T814 431Q814 393 805
349Q782 241 719 159T562 31T359 -15Q275 -15 207 20ZM453 77T520 110T636 205T702 349Q710 385 710 425Q710 517 655 568T494 620Q419 620 352 587T237 492T172 349Q163 309 163 274Q163 181 219 129T379 77Q453 77 520 110Z" />
<glyph unicode="&#xd5;" glyph-name="Otilde" horiz-adv-x="826" d="M349 828Q389 871 456 871Q478 871 497 865T546 846Q570 834 589 828T631 821Q661 821 686 832T737 872L719 786Q682 744 614 744Q589 744 568 750T521 770Q496 782 479 788T440 794Q411 794
385 782T331 742L349 828ZM275 -15T207 20T99 119T60 268Q60 307 69 349Q92 457 156 540T313 668T514 714Q600 714 668 679T775 580T814 431Q814 393 805 349Q782 241 719 159T562 31T359 -15Q275 -15 207 20ZM453 77T520 110T636 205T702 349Q710 385 710 425Q710
517 655 568T494 620Q419 620 352 587T237 492T172 349Q163 309 163 274Q163 181 219 129T379 77Q453 77 520 110Z" />
<glyph unicode="&#xd6;" glyph-name="Odieresis" horiz-adv-x="826" d="M387 741T374 754T360 787Q360 814 382 835T432 857Q452 857 464 845T477 812Q477 784 456 763T407 741Q387 741 374 754ZM613 741T600 754T586 787Q586 814 609 835T659 857Q679 857 691
845T704 812Q704 784 683 763T634 741Q613 741 600 754ZM275 -15T207 20T99 119T60 268Q60 307 69 349Q92 457 156 540T313 668T514 714Q600 714 668 679T775 580T814 431Q814 393 805 349Q782 241 719 159T562 31T359 -15Q275 -15 207 20ZM453 77T520 110T636
205T702 349Q710 385 710 425Q710 517 655 568T494 620Q419 620 352 587T237 492T172 349Q163 309 163 274Q163 181 219 129T379 77Q453 77 520 110Z" />
<glyph unicode="&#xd7;" glyph-name="multiply" horiz-adv-x="374" d="M188 242L88 160L42 217L142 300L76 385L141 438L207 354L315 444L360 385L252 296L318 212L254 159L188 242Z" />
<glyph unicode="&#xd8;" glyph-name="Oslash" horiz-adv-x="826" d="M191 27Q129 63 95 124T60 266Q60 306 69 349Q92 457 156 540T313 668T514 714Q564 714 607 702L657 784H757L686 669Q746 633 780 572T814 432Q814 393 805 349Q782 241 719 159T562 31T359
-15Q317 -15 272 -5L222 -86H122L191 27ZM553 616Q517 620 494 620Q419 620 352 587T237 492T172 349Q162 305 162 262Q162 153 240 107L553 616ZM453 77T520 110T636 205T702 349Q711 394 711 433Q711 543 636 588L324 80Q350 77 379 77Q453 77 520 110Z" />
<glyph unicode="&#xd9;" glyph-name="Ugrave" horiz-adv-x="697" d="M368 913H475L507 741H414L368 913ZM180 -15T119 39T57 190Q57 221 65 261L158 699H260L166 257Q159 226 159 197Q159 135 197 106T315 77Q401 77 460 122T539 257L633 699H735L642 261Q584
-15 295 -15Q180 -15 119 39Z" />
<glyph unicode="&#xda;" glyph-name="Uacute" horiz-adv-x="697" d="M507 913H614L494 741H402L507 913ZM180 -15T119 39T57 190Q57 221 65 261L158 699H260L166 257Q159 226 159 197Q159 135 197 106T315 77Q401 77 460 122T539 257L633 699H735L642 261Q584
-15 295 -15Q180 -15 119 39Z" />
<glyph unicode="&#xdb;" glyph-name="Ucircumflex" horiz-adv-x="697" d="M446 907H535L641 741H542L481 848L374 741H269L446 907ZM180 -15T119 39T57 190Q57 221 65 261L158 699H260L166 257Q159 226 159 197Q159 135 197 106T315 77Q401 77 460 122T539 257L633
699H735L642 261Q584 -15 295 -15Q180 -15 119 39Z" />
<glyph unicode="&#xdc;" glyph-name="Udieresis" horiz-adv-x="697" d="M322 741T309 754T295 787Q295 814 317 835T367 857Q387 857 399 845T412 812Q412 784 391 763T342 741Q322 741 309 754ZM548 741T535 754T521 787Q521 814 544 835T594 857Q614 857 626
845T639 812Q639 784 618 763T569 741Q548 741 535 754ZM180 -15T119 39T57 190Q57 221 65 261L158 699H260L166 257Q159 226 159 197Q159 135 197 106T315 77Q401 77 460 122T539 257L633 699H735L642 261Q584 -15 295 -15Q180 -15 119 39Z" />
<glyph unicode="&#xdd;" glyph-name="Yacute" horiz-adv-x="700" d="M502 926H609L489 754H397L502 926ZM305 265L143 699H249L372 362L642 699H753L404 265L348 0H249L305 265Z" />
<glyph unicode="&#xde;" glyph-name="Thorn" horiz-adv-x="603" d="M163 699H265L236 561H409Q503 561 555 520T607 401Q607 373 602 350Q562 141 319 141H146L117 0H15L163 699ZM321 226Q392 226 438 252T499 350Q504 377 504 392Q504 440 472 457T373 475H217L165
226H321Z" />
<glyph unicode="&#xdf;" glyph-name="germandbls" horiz-adv-x="633" d="M224 -15T183 4L203 98Q244 77 315 77Q378 77 422 115T480 216Q484 232 484 249Q484 337 354 337H304L322 423H365Q416 423 448 453T493 537Q496 551 496 563Q496 603 468 626T389 650Q250
650 220 510L112 0H10L117 504Q141 619 216 681T408 744Q505 744 553 699T601 583Q601 562 596 537Q584 486 554 446T480 386Q532 373 559 340T586 254Q586 229 580 202Q559 104 489 45T311 -15Q224 -15 183 4Z" />
<glyph unicode="&#xe0;" glyph-name="agrave" horiz-adv-x="655" d="M357 706H464L496 534H403L357 706ZM185 -15T139 9T66 77T39 180Q39 208 45 239Q61 314 106 372T215 462T352 495Q481 495 532 416L546 480H647L545 0H447L461 70Q412 26 360 6T243 -15Q185
-15 139 9ZM345 65T398 97T483 185L506 293Q501 348 460 381T357 414Q283 414 224 366T147 239Q140 204 140 182Q140 65 283 65Q345 65 398 97Z" />
<glyph unicode="&#xe1;" glyph-name="aacute" horiz-adv-x="655" d="M491 706H598L478 534H386L491 706ZM185 -15T139 9T66 77T39 180Q39 208 45 239Q61 314 106 372T215 462T352 495Q481 495 532 416L546 480H647L545 0H447L461 70Q412 26 360 6T243 -15Q185
-15 139 9ZM345 65T398 97T483 185L506 293Q501 348 460 381T357 414Q283 414 224 366T147 239Q140 204 140 182Q140 65 283 65Q345 65 398 97Z" />
<glyph unicode="&#xe2;" glyph-name="acircumflex" horiz-adv-x="655" d="M433 700H522L628 534H529L468 641L361 534H256L433 700ZM185 -15T139 9T66 77T39 180Q39 208 45 239Q61 314 106 372T215 462T352 495Q481 495 532 416L546 480H647L545 0H447L461 70Q412
26 360 6T243 -15Q185 -15 139 9ZM345 65T398 97T483 185L506 293Q501 348 460 381T357 414Q283 414 224 366T147 239Q140 204 140 182Q140 65 283 65Q345 65 398 97Z" />
<glyph unicode="&#xe3;" glyph-name="atilde" horiz-adv-x="655" d="M278 620Q318 663 385 663Q407 663 426 657T475 638Q499 626 518 620T560 613Q590 613 615 624T666 664L648 578Q611 536 543 536Q518 536 497 542T450 562Q425 574 408 580T369 586Q340 586
314 574T260 534L278 620ZM185 -15T139 9T66 77T39 180Q39 208 45 239Q61 314 106 372T215 462T352 495Q481 495 532 416L546 480H647L545 0H447L461 70Q412 26 360 6T243 -15Q185 -15 139 9ZM345 65T398 97T483 185L506 293Q501 348 460 381T357 414Q283 414 224
366T147 239Q140 204 140 182Q140 65 283 65Q345 65 398 97Z" />
<glyph unicode="&#xe4;" glyph-name="adieresis" horiz-adv-x="655" d="M303 530T290 543T276 576Q276 603 298 624T348 646Q368 646 380 634T393 601Q393 573 372 552T323 530Q303 530 290 543ZM529 530T516 543T502 576Q502 603 525 624T575 646Q595 646 607
634T620 601Q620 573 599 552T550 530Q529 530 516 543ZM185 -15T139 9T66 77T39 180Q39 208 45 239Q61 314 106 372T215 462T352 495Q481 495 532 416L546 480H647L545 0H447L461 70Q412 26 360 6T243 -15Q185 -15 139 9ZM345 65T398 97T483 185L506 293Q501 348
460 381T357 414Q283 414 224 366T147 239Q140 204 140 182Q140 65 283 65Q345 65 398 97Z" />
<glyph unicode="&#xe5;" glyph-name="aring" horiz-adv-x="655" d="M407 535T381 560T355 626Q355 638 358 651Q369 700 408 733T499 767Q541 767 567 741T593 676Q593 663 590 651Q579 601 540 568T449 535Q407 535 381 560ZM487 596T508 617T529 664Q529 682
518 693T485 705Q463 705 444 689T420 651Q418 641 418 636Q418 618 429 607T462 596Q487 596 508 617ZM185 -15T139 9T66 77T39 180Q39 208 45 239Q61 314 106 372T215 462T352 495Q481 495 532 416L546 480H647L545 0H447L461 70Q412 26 360 6T243 -15Q185 -15
139 9ZM345 65T398 97T483 185L506 293Q501 348 460 381T357 414Q283 414 224 366T147 239Q140 204 140 182Q140 65 283 65Q345 65 398 97Z" />
<glyph unicode="&#xe6;" glyph-name="ae" horiz-adv-x="972" d="M111 -15T67 20T22 115Q22 134 26 150Q43 230 103 273T256 317Q355 317 415 277L421 302Q425 324 425 334Q425 375 395 394T301 414Q257 414 214 406T135 382L152 464Q185 478 235 486T330 495Q394
495 439 474T503 415Q544 453 600 474T723 495Q827 495 882 443T937 308Q937 285 930 250L919 200H499Q497 182 497 174Q497 117 538 91T667 65Q714 65 762 73T850 96L833 15Q798 2 744 -6T638 -15Q565 -15 513 8T432 74Q333 -15 187 -15Q111 -15 67 20ZM838 271Q842
290 842 310Q842 414 704 414Q628 414 579 375T514 271H838ZM273 62T315 80T385 133L399 199Q371 220 338 230T263 241Q147 241 128 150Q125 137 125 126Q125 94 149 78T225 62Q273 62 315 80Z" />
<glyph unicode="&#xe7;" glyph-name="ccedilla" horiz-adv-x="547" d="M146 -248T121 -237L134 -179Q143 -184 159 -187T189 -190Q253 -190 263 -144Q264 -140 264 -133Q264 -89 174 -89L219 -12Q137 0 88 50T38 180Q38 202 45 239Q71 359 157 427T375 495Q485
495 542 452L524 369Q469 414 367 414Q287 414 227 369T147 239Q141 209 141 184Q141 124 178 95T291 65Q392 65 476 113L458 31Q395 -7 310 -13L284 -56Q357 -66 357 -127Q357 -181 314 -214T201 -248Q146 -248 121 -237Z" />
<glyph unicode="&#xe8;" glyph-name="egrave" horiz-adv-x="608" d="M288 706H395L427 534H334L288 706ZM165 -15T102 35T38 178Q38 208 45 239Q71 359 150 427T360 495Q427 495 475 471T547 403T572 306Q572 279 566 250L555 200H133Q131 182 131 174Q131 117
173 91T304 65Q350 65 399 73T487 96L470 15Q435 2 381 -6T275 -15Q165 -15 102 35ZM475 271Q479 297 479 308Q479 414 340 414Q264 414 214 375T148 271H475Z" />
<glyph unicode="&#xe9;" glyph-name="eacute" horiz-adv-x="608" d="M419 706H526L406 534H314L419 706ZM165 -15T102 35T38 178Q38 208 45 239Q71 359 150 427T360 495Q427 495 475 471T547 403T572 306Q572 279 566 250L555 200H133Q131 182 131 174Q131 117
173 91T304 65Q350 65 399 73T487 96L470 15Q435 2 381 -6T275 -15Q165 -15 102 35ZM475 271Q479 297 479 308Q479 414 340 414Q264 414 214 375T148 271H475Z" />
<glyph unicode="&#xea;" glyph-name="ecircumflex" horiz-adv-x="608" d="M365 700H454L560 534H461L400 641L293 534H188L365 700ZM165 -15T102 35T38 178Q38 208 45 239Q71 359 150 427T360 495Q427 495 475 471T547 403T572 306Q572 279 566 250L555 200H133Q131
182 131 174Q131 117 173 91T304 65Q350 65 399 73T487 96L470 15Q435 2 381 -6T275 -15Q165 -15 102 35ZM475 271Q479 297 479 308Q479 414 340 414Q264 414 214 375T148 271H475Z" />
<glyph unicode="&#xeb;" glyph-name="edieresis" horiz-adv-x="608" d="M239 534T226 547T212 580Q212 607 234 628T284 650Q304 650 316 638T329 605Q329 577 308 556T259 534Q239 534 226 547ZM465 534T452 547T438 580Q438 607 461 628T511 650Q531 650 543
638T556 605Q556 577 535 556T486 534Q465 534 452 547ZM165 -15T102 35T38 178Q38 208 45 239Q71 359 150 427T360 495Q427 495 475 471T547 403T572 306Q572 279 566 250L555 200H133Q131 182 131 174Q131 117 173 91T304 65Q350 65 399 73T487 96L470 15Q435
2 381 -6T275 -15Q165 -15 102 35ZM475 271Q479 297 479 308Q479 414 340 414Q264 414 214 375T148 271H475Z" />
<glyph unicode="&#xec;" glyph-name="igrave" horiz-adv-x="232" d="M87 706H194L226 534H133L87 706ZM117 480H219L117 0H15L117 480Z" />
<glyph unicode="&#xed;" glyph-name="iacute" horiz-adv-x="232" d="M237 706H344L224 534H132L237 706ZM117 480H219L117 0H15L117 480Z" />
<glyph unicode="&#xee;" glyph-name="icircumflex" horiz-adv-x="232" d="M170 700H259L365 534H266L205 641L98 534H-7L170 700ZM117 480H219L117 0H15L117 480Z" />
<glyph unicode="&#xef;" glyph-name="idieresis" horiz-adv-x="232" d="M46 534T33 547T19 580Q19 607 41 628T91 650Q111 650 123 638T136 605Q136 577 115 556T66 534Q46 534 33 547ZM272 534T259 547T245 580Q245 607 268 628T318 650Q338 650 350 638T363
605Q363 577 342 556T293 534Q272 534 259 547ZM117 480H219L117 0H15L117 480Z" />
<glyph unicode="&#xf0;" glyph-name="eth" horiz-adv-x="625" d="M146 -15T91 34T35 164Q35 190 41 218Q64 324 143 386T340 448Q394 448 436 428T500 370Q511 431 511 477Q511 530 497 562L332 491L346 558L462 608Q428 634 371 634Q344 634 310 630T256 618L274
701Q296 706 328 710T386 714Q500 714 554 647L679 701L664 634L581 598Q600 547 600 479Q600 406 579 307Q557 203 507 131T389 22T244 -15Q146 -15 91 34ZM309 62T347 83T412 139T447 216Q452 239 452 257Q452 308 420 338T329 369Q257 369 206 328T140 216Q135
191 135 174Q135 121 167 92T264 62Q309 62 347 83Z" />
<glyph unicode="&#xf1;" glyph-name="ntilde" horiz-adv-x="600" d="M186 621Q226 664 293 664Q315 664 334 658T383 639Q407 627 426 621T468 614Q498 614 523 625T574 665L556 579Q519 537 451 537Q426 537 405 543T358 563Q333 575 316 581T277 587Q248 587
222 575T168 535L186 621ZM117 480H215L200 411Q244 454 297 474T405 495Q481 495 520 456T560 353Q560 334 555 307L490 0H389L452 297Q458 326 458 347Q458 382 437 398T364 414Q316 414 270 392T184 323L116 0H15L117 480Z" />
<glyph unicode="&#xf2;" glyph-name="ograve" horiz-adv-x="637" d="M300 706H407L439 534H346L300 706ZM159 -15T99 36T38 177Q38 208 45 239Q61 316 106 374T220 463T373 495Q478 495 538 443T599 300Q599 270 592 239Q567 121 480 53T264 -15Q159 -15 99 36ZM359
65T415 113T488 239Q494 269 494 295Q494 414 355 414Q277 414 221 367T148 239Q142 211 142 186Q142 128 176 97T281 65Q359 65 415 113Z" />
<glyph unicode="&#xf3;" glyph-name="oacute" horiz-adv-x="637" d="M430 706H537L417 534H325L430 706ZM159 -15T99 36T38 177Q38 208 45 239Q61 316 106 374T220 463T373 495Q478 495 538 443T599 300Q599 270 592 239Q567 121 480 53T264 -15Q159 -15 99 36ZM359
65T415 113T488 239Q494 269 494 295Q494 414 355 414Q277 414 221 367T148 239Q142 211 142 186Q142 128 176 97T281 65Q359 65 415 113Z" />
<glyph unicode="&#xf4;" glyph-name="ocircumflex" horiz-adv-x="655" d="M390 700H479L585 534H486L425 641L318 534H213L390 700ZM177 -15T117 36T56 177Q56 208 63 239Q79 316 124 374T238 463T391 495Q496 495 556 443T617 300Q617 270 610 239Q585 121 498
53T282 -15Q177 -15 117 36ZM377 65T433 113T506 239Q512 269 512 295Q512 414 373 414Q295 414 239 367T166 239Q160 211 160 186Q160 128 194 97T299 65Q377 65 433 113Z" />
<glyph unicode="&#xf5;" glyph-name="otilde" horiz-adv-x="651" d="M225 627Q265 670 332 670Q354 670 373 664T422 645Q446 633 465 627T507 620Q537 620 562 631T613 671L595 585Q558 543 490 543Q465 543 444 549T397 569Q372 581 355 587T316 593Q287 593
261 581T207 541L225 627ZM173 -15T113 36T52 177Q52 208 59 239Q75 316 120 374T234 463T387 495Q492 495 552 443T613 300Q613 270 606 239Q581 121 494 53T278 -15Q173 -15 113 36ZM373 65T429 113T502 239Q508 269 508 295Q508 414 369 414Q291 414 235 367T162
239Q156 211 156 186Q156 128 190 97T295 65Q373 65 429 113Z" />
<glyph unicode="&#xf6;" glyph-name="odieresis" horiz-adv-x="646" d="M257 534T244 547T230 580Q230 607 252 628T302 650Q322 650 334 638T347 605Q347 577 326 556T277 534Q257 534 244 547ZM483 534T470 547T456 580Q456 607 479 628T529 650Q549 650 561
638T574 605Q574 577 553 556T504 534Q483 534 470 547ZM168 -15T108 36T47 177Q47 208 54 239Q70 316 115 374T229 463T382 495Q487 495 547 443T608 300Q608 270 601 239Q576 121 489 53T273 -15Q168 -15 108 36ZM368 65T424 113T497 239Q503 269 503 295Q503
414 364 414Q286 414 230 367T157 239Q151 211 151 186Q151 128 185 97T290 65Q368 65 424 113Z" />
<glyph unicode="&#xf7;" glyph-name="divide" horiz-adv-x="409" d="M217 385T206 395T195 423Q195 448 214 466T257 485Q275 485 286 474T297 445Q297 421 278 403T235 385Q217 385 206 395ZM66 338H385L368 257H49L66 338ZM159 110T148 120T136 148Q136 174
155 192T198 210Q216 210 227 199T238 170Q238 146 220 128T177 110Q159 110 148 120Z" />
<glyph unicode="&#xf8;" glyph-name="oslash" horiz-adv-x="637" d="M129 15Q85 39 62 80T38 177Q38 208 45 239Q61 316 106 374T220 463T373 495Q390 495 422 491L468 566H568L506 465Q551 440 575 398T599 300Q599 270 592 239Q567 121 480 53T264 -15Q234 -15
213 -11L167 -86H67L129 15ZM374 413Q368 414 355 414Q277 414 221 367T148 239Q142 211 142 186Q142 125 178 95L374 413ZM281 65Q359 65 415 113T488 239Q494 269 494 294Q494 356 457 386L260 65H281Z" />
<glyph unicode="&#xf9;" glyph-name="ugrave" horiz-adv-x="600" d="M274 706H381L413 534H320L274 706ZM126 -15T84 25T42 131Q42 149 47 176L112 480H213L149 180Q144 155 144 139Q144 101 166 83T239 65Q340 65 417 156L486 480H587L485 0H387L401 68Q318 -15
202 -15Q126 -15 84 25Z" />
<glyph unicode="&#xfa;" glyph-name="uacute" horiz-adv-x="600" d="M414 706H521L401 534H309L414 706ZM126 -15T84 25T42 131Q42 149 47 176L112 480H213L149 180Q144 155 144 139Q144 101 166 83T239 65Q340 65 417 156L486 480H587L485 0H387L401 68Q318 -15
202 -15Q126 -15 84 25Z" />
<glyph unicode="&#xfb;" glyph-name="ucircumflex" horiz-adv-x="600" d="M346 700H435L541 534H442L381 641L274 534H169L346 700ZM126 -15T84 25T42 131Q42 149 47 176L112 480H213L149 180Q144 155 144 139Q144 101 166 83T239 65Q340 65 417 156L486 480H587L485
0H387L401 68Q318 -15 202 -15Q126 -15 84 25Z" />
<glyph unicode="&#xfc;" glyph-name="udieresis" horiz-adv-x="600" d="M226 534T213 547T199 580Q199 607 221 628T271 650Q291 650 303 638T316 605Q316 577 295 556T246 534Q226 534 213 547ZM452 534T439 547T425 580Q425 607 448 628T498 650Q518 650 530
638T543 605Q543 577 522 556T473 534Q452 534 439 547ZM126 -15T84 25T42 131Q42 149 47 176L112 480H213L149 180Q144 155 144 139Q144 101 166 83T239 65Q340 65 417 156L486 480H587L485 0H387L401 68Q318 -15 202 -15Q126 -15 84 25Z" />
<glyph unicode="&#xfd;" glyph-name="yacute" horiz-adv-x="587" d="M409 708H516L396 536H304L409 708ZM118 -230T73 -222T-1 -199L17 -116Q85 -150 184 -150Q274 -150 318 -111T386 13L404 83Q321 0 205 0Q129 0 87 40T45 146Q45 164 50 191L112 480H213L152
195Q147 170 147 154Q147 116 169 98T242 80Q343 80 420 171L486 480H587L490 24Q463 -102 388 -166T167 -230Q118 -230 73 -222Z" />
<glyph unicode="&#xfe;" glyph-name="thorn" horiz-adv-x="660" d="M163 699H264L204 416Q246 454 302 474T418 495Q509 495 565 442T622 301Q622 273 616 241Q591 125 509 55T309 -15Q249 -15 202 5T129 64L69 -219H-32L163 699ZM352 65T396 87T471 149T514 241Q519
269 519 288Q519 347 483 380T377 414Q315 414 262 382T178 294L155 186Q160 131 201 98T303 65Q352 65 396 87Z" />
<glyph unicode="&#xff;" glyph-name="ydieresis" horiz-adv-x="587" d="M239 534T226 547T212 580Q212 607 234 628T284 650Q304 650 316 638T329 605Q329 577 308 556T259 534Q239 534 226 547ZM465 534T452 547T438 580Q438 607 461 628T511 650Q531 650 543
638T556 605Q556 577 535 556T486 534Q465 534 452 547ZM118 -230T73 -222T-1 -199L17 -116Q85 -150 184 -150Q274 -150 318 -111T386 13L404 83Q321 0 205 0Q129 0 87 40T45 146Q45 164 50 191L112 480H213L152 195Q147 170 147 154Q147 116 169 98T242 80Q343
80 420 171L486 480H587L490 24Q463 -102 388 -166T167 -230Q118 -230 73 -222Z" />
<glyph unicode="&#x2013;" glyph-name="endash" horiz-adv-x="646" d="M67 339H623L605 256H49L67 339Z" />
<glyph unicode="&#x2014;" glyph-name="emdash" horiz-adv-x="791" d="M67 339H768L750 256H49L67 339Z" />
<glyph unicode="&#x2018;" glyph-name="quoteleft" horiz-adv-x="253" d="M224 714H309L202 519H105L224 714Z" />
<glyph unicode="&#x2019;" glyph-name="quoteright" horiz-adv-x="256" d="M212 714H312L192 519H105L212 714Z" />
<glyph unicode="&#x201a;" glyph-name="quotesinglbase" horiz-adv-x="256" d="M76 71H176L55 -124H-32L76 71Z" />
<glyph unicode="&#x201c;" glyph-name="quotedblleft" horiz-adv-x="410" d="M225 714H307L199 519H105L225 714ZM384 714H466L359 519H264L384 714Z" />
<glyph unicode="&#x201d;" glyph-name="quotedblright" horiz-adv-x="410" d="M212 714H307L187 519H105L212 714ZM371 714H466L346 519H264L371 714Z" />
<glyph unicode="&#x201e;" glyph-name="quotedblbase" horiz-adv-x="410" d="M76 71H171L50 -124H-32L76 71ZM235 71H330L209 -124H127L235 71Z" />
<glyph unicode="&#x2022;" glyph-name="bullet" horiz-adv-x="265" d="M95 210T76 229T56 277Q56 305 71 330T111 370T163 385Q195 385 215 365T235 315Q235 287 220 263T179 224T126 210Q95 210 76 229Z" />
<glyph unicode="&#x2039;" glyph-name="guilsinglleft" horiz-adv-x="372" d="M60 308L66 338L340 535L377 466L169 318L314 171L250 112L60 308Z" />
<glyph unicode="&#x203a;" glyph-name="guilsinglright" horiz-adv-x="372" d="M32 181L239 328L95 476L158 535L348 338L342 308L68 112L32 181Z" />
</font>
</defs>
</svg>
