<?xml version="1.0" standalone="no"?>
<!DOCTYPE svg PUBLIC "-//W3C//DTD SVG 1.1//EN" "http://www.w3.org/Graphics/SVG/1.1/DTD/svg11.dtd">
<svg xmlns="http://www.w3.org/2000/svg">
<defs >
<font id="Roboto" horiz-adv-x="1085" ><font-face
    font-family="Roboto Medium"
    units-per-em="2048"
    panose-1="2 0 0 0 0 0 0 0 0 0"
    ascent="1900"
    descent="-500"
    alphabetic="0" />
<glyph unicode=" " horiz-adv-x="509" />
<glyph unicode="!" horiz-adv-x="542" d="M402 1456L378 429H172L147 1456H402ZM140 114Q140 169 176 206T278 244Q342 244 379 207T416 114Q416 61 379 24T278 -14Q213 -14 177 23T140 114Z" />
<glyph unicode="&quot;" horiz-adv-x="654" d="M270 1536V1399L235 1016H96V1388V1536H270ZM570 1536V1399L535 1016H396V1396V1536H570Z" />
<glyph unicode="#" horiz-adv-x="1235" d="M244 0L512 1456H676L408 0H244ZM634 0L902 1456H1066L798 0H634ZM1202 885H162V1040H1202V885ZM1127 410H86V565H1127V410Z" />
<glyph unicode="$" horiz-adv-x="1164" d="M689 1689V1390H535V1689H689ZM670 56V-212H517V56H670ZM821 379Q821 437 798 480T721 559T579 626Q451 671 356 727T208 867T155 1076Q155 1199 211 1289T369 1428T605 1477Q709 1477 792 1446T935 1355T1025 1208T1057
1007H817Q817 1071 803 1121T760 1207T693 1262T603 1281Q532 1281 486 1255T419 1182T397 1077Q397 1020 419 977T494 900T642 830Q771 784 865 728T1011 589T1063 381Q1063 252 1004 162T838 26T590 -21Q501 -21 414 2T255 80T142 223T100 443H342Q342 365 363
313T420 231T500 188T590 175Q665 175 716 200T794 272T821 379Z" />
<glyph unicode="%" horiz-adv-x="1508" d="M100 1099V1176Q100 1259 136 1327T241 1436T407 1477Q507 1477 575 1436T680 1327T716 1176V1099Q716 1018 681 950T577 841T409 800Q311 800 242 841T136 950T100 1099ZM267 1176V1099Q267 1059 282 1023T330 965T409
943Q457 943 487 965T533 1023T548 1099V1176Q548 1217 533 1253T486 1312T407 1334Q361 1334 330 1312T283 1254T267 1176ZM802 279V357Q802 439 838 507T944 616T1110 657Q1210 657 1278 616T1382 507T1418 357V279Q1418 197 1383 129T1279 20T1112 -21Q1014
-21 945 20T839 129T802 279ZM970 357V279Q970 239 986 203T1035 145T1112 122Q1163 122 1194 144T1238 202T1252 279V357Q1252 398 1237 434T1190 492T1110 514Q1063 514 1032 492T986 434T970 357ZM1170 1248L459 110L336 181L1047 1319L1170 1248Z" />
<glyph unicode="&amp;" horiz-adv-x="1313" d="M373 792L624 961Q687 1003 714 1043T741 1145Q741 1197 701 1241T588 1285Q537 1285 502 1262T450 1200T432 1114Q432 1069 455 1022T518 923T608 812L1296 0H1017L455 661Q382 749 326 822T239 965T208 1109Q208
1223 255 1305T388 1431T589 1476Q700 1476 780 1432T904 1314T948 1154Q948 1085 923 1028T854 924T752 835L447 613Q394 570 369 531T335 458T327 400Q327 336 354 284T435 202T566 171Q649 171 727 208T867 315T965 480T1002 693H1210Q1210 587 1190 492T1125
316T1008 171Q1001 164 993 154T976 136Q890 57 784 19T557 -20Q412 -20 306 33T143 179T85 392Q85 481 122 548T223 674T373 792Z" />
<glyph unicode="&apos;" horiz-adv-x="343" d="M265 1536V1407L239 1022H82L83 1391V1536H265Z" />
<glyph unicode="(" horiz-adv-x="709" d="M129 575V592Q129 806 175 980T297 1286T457 1504T622 1629L670 1491Q612 1448 555 1372T450 1186T374 928T345 594V573Q345 387 373 240T449 -19T554 -207T670 -331L622 -463Q543 -424 458 -338T297 -120T176 186T129 575Z" />
<glyph unicode=")" horiz-adv-x="716" d="M589 592V575Q589 364 542 190T419 -116T256 -336T88 -463L39 -331Q97 -287 154 -211T259 -22T335 239T364 573V594Q364 780 335 928T256 1188T150 1377T39 1497L88 1629Q168 1591 255 1503T418 1283T541 976T589 592Z" />
<glyph unicode="*" horiz-adv-x="908" d="M128 699L338 974L28 1064L81 1228L389 1110L375 1457H549L533 1103L836 1221L889 1054L573 963L778 694L637 592L452 882L270 600L128 699Z" />
<glyph unicode="+" horiz-adv-x="1137" d="M1064 798V581H66V798H1064ZM682 1206V146H449V1206H682Z" />
<glyph unicode="," horiz-adv-x="458" d="M350 232L349 60Q349 -42 298 -150T163 -328L34 -253Q62 -208 85 -162T122 -64T136 51V232H350Z" />
<glyph unicode="-" horiz-adv-x="696" d="M609 718V526H80V718H609Z" />
<glyph unicode="." horiz-adv-x="569" d="M134 120Q134 176 172 214T275 253Q341 253 378 215T416 120Q416 64 379 26T275 -12Q210 -12 172 26T134 120Z" />
<glyph unicode="/" horiz-adv-x="799" d="M757 1456L190 -125H1L569 1456H757Z" />
<glyph unicode="0" horiz-adv-x="1164" d="M1059 850V612Q1059 441 1026 321T929 125T779 15T583 -20Q497 -20 424 2T291 71T191 192T127 371T104 612V850Q104 1022 138 1140T235 1333T385 1442T581 1476Q668 1476 741 1455T873 1387T973 1268T1037 1091T1059
850ZM818 578V886Q818 973 808 1039T779 1152T730 1228T664 1271T581 1285Q525 1285 481 1264T407 1195T362 1072T346 886V578Q346 490 356 423T386 309T434 231T500 186T583 172Q640 172 684 194T758 264T803 391T818 578Z" />
<glyph unicode="1" horiz-adv-x="1164" d="M768 1461V0H527V1175L170 1054V1253L739 1461H768Z" />
<glyph unicode="2" horiz-adv-x="1164" d="M1086 192V0H110V165L584 682Q662 770 707 834T770 949T789 1050Q789 1119 764 1171T689 1254T570 1285Q489 1285 434 1250T351 1154T323 1013H82Q82 1140 140 1245T308 1413T573 1476Q719 1476 821 1427T976 1288T1030
1075Q1030 1007 1008 940T946 807T850 674T729 539L414 192H1086Z" />
<glyph unicode="3" horiz-adv-x="1164" d="M393 837H537Q621 837 676 866T759 946T786 1063Q786 1132 762 1181T688 1258T562 1285Q498 1285 447 1260T365 1188T335 1077H93Q93 1193 154 1283T320 1424T558 1476Q699 1476 804 1430T969 1291T1028 1063Q1028 1001
999 937T913 821T771 736T574 703H393V837ZM393 649V781H574Q702 781 792 751T940 669T1023 549T1050 407Q1050 305 1014 226T910 91T754 8T559 -20Q465 -20 379 6T225 83T118 212T78 392H319Q319 327 349 278T435 200T563 172Q639 172 694 199T778 279T808 407Q808
492 775 545T681 623T537 649H393Z" />
<glyph unicode="4" horiz-adv-x="1164" d="M1113 519V327H63L55 472L683 1456H876L667 1098L306 519H1113ZM931 1456V0H690V1456H931Z" />
<glyph unicode="5" horiz-adv-x="1164" d="M363 677L171 724L250 1456H1035V1252H450L410 895Q444 915 504 934T641 954Q744 954 825 921T964 824T1051 670T1081 466Q1081 365 1052 277T963 122T815 18T603 -20Q512 -20 429 6T279 85T173 215T127 394H363Q372
323 402 274T484 198T602 172Q663 172 707 193T780 255T824 351T839 473Q839 537 823 590T774 682T692 742T579 764Q493 764 448 739T363 677Z" />
<glyph unicode="6" horiz-adv-x="1164" d="M838 1465H868V1268H851Q722 1268 629 1228T475 1118T386 955T356 756V527Q356 440 375 374T428 263T508 195T605 172Q659 172 703 194T778 257T825 352T841 472Q841 534 826 588T780 684T706 749T603 773Q531 773 473
739T379 651T340 535L248 565Q256 658 289 732T378 858T505 937T665 965Q771 965 849 925T978 817T1055 661T1081 478Q1081 373 1049 283T956 124T807 18T608 -20Q491 -20 400 25T245 149T148 331T115 549V649Q115 815 157 962T286 1223T511 1400T838 1465Z" />
<glyph unicode="7" horiz-adv-x="1164" d="M1077 1456V1324L495 0H241L822 1264H68V1456H1077Z" />
<glyph unicode="8" horiz-adv-x="1164" d="M1062 397Q1062 261 999 168T828 28T583 -20Q447 -20 338 27T166 168T103 397Q103 487 138 560T237 687T389 770T581 799Q719 799 828 748T999 607T1062 397ZM820 409Q820 482 790 537T706 622T581 652Q509 652 456 622T374
537T344 409Q344 335 373 282T456 200T583 172Q656 172 709 200T791 281T820 409ZM1029 1073Q1029 964 972 879T813 746T583 697Q453 697 352 745T193 879T135 1073Q135 1203 192 1292T351 1429T582 1476Q712 1476 813 1429T971 1293T1029 1073ZM788 1065Q788 1130
763 1179T691 1257T582 1285Q519 1285 473 1258T402 1182T377 1065Q377 998 402 949T473 871T583 843Q646 843 692 871T763 948T788 1065Z" />
<glyph unicode="9" horiz-adv-x="1164" d="M304 190H324Q462 190 554 226T702 328T781 481T805 672V923Q805 1012 787 1079T735 1192T658 1261T564 1284Q509 1284 466 1260T393 1193T348 1094T332 973Q332 913 346 858T390 759T463 691T566 666Q622 666 669 687T751
746T806 829T828 923L920 895Q920 819 889 746T802 612T673 515T513 479Q409 479 330 518T198 626T119 782T93 967Q93 1072 125 1164T218 1326T366 1436T565 1476Q683 1476 772 1430T922 1303T1014 1115T1045 885V800Q1045 671 1022 552T948 331T813 153T609 34T326
-9H304V190Z" />
<glyph unicode=":" horiz-adv-x="540" d="M383 120Q383 176 421 214T524 253Q590 253 627 215T665 120Q665 64 628 26T524 -12Q459 -12 421 26T383 120ZM128 972Q128 1028 166 1066T269 1105Q335 1105 372 1067T410 972Q410 916 373 878T269 840Q204 840 166 878T128
972Z" />
<glyph unicode=";" horiz-adv-x="491" d="M109 972Q109 1028 147 1066T250 1105Q316 1105 353 1067T391 972Q391 916 354 878T250 840Q185 840 147 878T109 972ZM367 232L366 60Q366 -42 315 -150T180 -328L51 -253Q79 -208 102 -162T139 -64T153 51V232H367Z" />
<glyph unicode="&lt;" horiz-adv-x="1042" d="M244 657L905 404V167L62 539V696L244 657ZM905 864L244 607L62 572V729L905 1100V864Z" />
<glyph unicode="=" horiz-adv-x="1152" d="M1011 978V780H143V978H1011ZM1011 554V356H143V554H1011Z" />
<glyph unicode="&gt;" horiz-adv-x="1064" d="M799 617L126 868V1101L990 730V572L799 617ZM126 401L801 657L990 697V540L126 168V401Z" />
<glyph unicode="?" horiz-adv-x="996" d="M575 429H352Q353 522 368 585T418 701T513 811Q559 855 596 894T655 978T677 1081Q677 1144 656 1188T595 1255T494 1278Q444 1278 400 1259T329 1199T300 1092H59Q61 1218 119 1304T275 1433T494 1476Q628 1476 723
1431T868 1299T919 1090Q919 1002 884 931T793 798T672 675Q616 624 596 565T575 429ZM332 117Q332 171 369 208T470 246Q534 246 571 209T608 117Q608 63 571 26T470 -12Q406 -12 369 25T332 117Z" />
<glyph unicode="@" horiz-adv-x="1837" d="M1743 520Q1739 423 1714 327T1639 152T1509 26T1319 -21Q1252 -21 1200 2T1114 70T1064 176T1056 316L1107 883H1282L1232 316Q1226 255 1234 216T1261 156T1302 127T1348 119Q1402 119 1445 149T1518 234T1566 361T1587
517Q1594 657 1574 775T1507 987T1384 1144T1203 1243T963 1277Q839 1277 734 1239T546 1130T404 959T311 736T271 471Q264 323 286 201T360 -15T488 -173T668 -271T896 -304Q984 -304 1074 -284T1227 -231L1265 -364Q1195 -409 1090 -431T892 -453Q737 -453 609
-413T382 -296T218 -106T122 151T98 471Q105 635 148 779T266 1042T446 1245T682 1377T967 1423Q1123 1423 1249 1382T1470 1263T1629 1074T1721 824T1743 520ZM726 425Q719 357 725 304T750 215T799 160T869 141Q894 141 922 153T979 194T1032 268T1074 384L1150
297Q1127 219 1092 160T1013 61T918 1T812 -20Q739 -20 683 12T590 102T539 242T533 425Q543 528 571 616T642 773T739 890T855 964T984 990Q1097 990 1161 958T1282 883L1188 763Q1159 790 1113 814T1002 838Q945 838 899 812T817 734T759 604T726 425Z" />
<glyph unicode="A" horiz-adv-x="1358" d="M715 1262L280 0H17L565 1456H733L715 1262ZM1079 0L643 1262L624 1456H793L1343 0H1079ZM1058 540V341H266V540H1058Z" />
<glyph unicode="B" horiz-adv-x="1293" d="M694 658H323L321 841H645Q727 841 784 865T872 936T902 1049Q902 1122 874 1168T789 1235T642 1256H399V0H148V1456H642Q762 1456 856 1433T1017 1362T1118 1239T1153 1063Q1153 973 1110 899T983 777T774 721L694 658ZM683
0H244L357 199H683Q768 199 825 227T910 306T939 425Q939 496 914 548T835 629T694 658H412L414 841H781L838 772Q958 768 1035 719T1151 592T1189 424Q1189 285 1129 191T955 49T683 0Z" />
<glyph unicode="C" horiz-adv-x="1337" d="M1008 474H1258Q1246 331 1178 220T987 44T688 -20Q553 -20 445 28T260 166T143 383T102 667V788Q102 945 143 1072T263 1289T450 1428T697 1476Q871 1476 991 1412T1177 1235T1259 976H1009Q999 1070 966 1137T867 1239T697
1275Q611 1275 547 1243T440 1149T376 997T354 790V667Q354 557 373 468T433 314T537 215T688 180Q795 180 861 214T962 313T1008 474Z" />
<glyph unicode="D" horiz-adv-x="1337" d="M571 0H260L262 199H571Q706 199 797 258T935 427T982 689V768Q982 886 956 977T878 1130T752 1224T580 1256H254V1456H580Q725 1456 845 1408T1052 1268T1187 1050T1234 766V689Q1234 532 1187 405T1052 188T843 49T571
0ZM399 1456V0H148V1456H399Z" />
<glyph unicode="E" horiz-adv-x="1157" d="M1101 199V0H328V199H1101ZM399 1456V0H148V1456H399ZM1000 848V652H328V848H1000ZM1096 1456V1256H328V1456H1096Z" />
<glyph unicode="F" horiz-adv-x="1128" d="M399 1456V0H148V1456H399ZM993 819V620H335V819H993ZM1076 1456V1256H335V1456H1076Z" />
<glyph unicode="G" horiz-adv-x="1395" d="M1266 744V188Q1235 147 1170 99T996 15T727 -20Q590 -20 476 26T280 163T152 382T107 678V779Q107 944 148 1073T268 1293T456 1429T707 1476Q886 1476 1003 1417T1185 1252T1266 1012H1020Q1008 1088 974 1148T876
1242T711 1277Q624 1277 558 1244T449 1147T383 991T361 781V678Q361 558 386 465T460 308T579 212T737 179Q823 179 878 193T965 228T1016 268V557H713V744H1266Z" />
<glyph unicode="H" horiz-adv-x="1453" d="M1110 848V649H337V848H1110ZM399 1456V0H148V1456H399ZM1303 1456V0H1053V1456H1303Z" />
<glyph unicode="I" horiz-adv-x="580" d="M416 1456V0H165V1456H416Z" />
<glyph unicode="J" horiz-adv-x="1138" d="M747 437V1456H997V437Q997 292 935 190T766 34T523 -20Q384 -20 277 27T108 171T47 417H299Q299 331 326 279T404 203T523 179Q588 179 638 208T718 295T747 437Z" />
<glyph unicode="K" horiz-adv-x="1294" d="M399 1456V0H148V1456H399ZM1274 1456L684 755L348 399L304 648L544 944L968 1456H1274ZM1004 0L525 690L698 861L1302 0H1004Z" />
<glyph unicode="L" horiz-adv-x="1106" d="M1060 199V0H329V199H1060ZM399 1456V0H148V1456H399Z" />
<glyph unicode="M" horiz-adv-x="1791" d="M250 1456H474L895 333L1315 1456H1539L983 0H805L250 1456ZM148 1456H361L398 484V0H148V1456ZM1428 1456H1642V0H1391V484L1428 1456Z" />
<glyph unicode="N" horiz-adv-x="1453" d="M1303 1456V0H1052L399 1043V0H148V1456H399L1054 411V1456H1303Z" />
<glyph unicode="O" horiz-adv-x="1411" d="M1309 768V688Q1309 523 1266 392T1144 169T953 29T707 -20Q573 -20 463 28T271 169T146 392T101 688V768Q101 933 145 1063T269 1286T460 1427T705 1476Q840 1476 951 1428T1142 1287T1265 1064T1309 768ZM1058 688V770Q1058
892 1035 985T966 1142T854 1238T705 1271Q622 1271 557 1239T447 1143T377 986T353 770V688Q353 566 377 472T447 314T559 217T707 184Q791 184 856 216T966 313T1034 472T1058 688Z" />
<glyph unicode="P" horiz-adv-x="1307" d="M701 543H322V742H701Q800 742 861 774T950 862T979 992Q979 1061 951 1121T861 1219T701 1256H399V0H148V1456H701Q870 1456 988 1397T1169 1233T1231 994Q1231 853 1169 752T989 597T701 543Z" />
<glyph unicode="Q" horiz-adv-x="1411" d="M919 194L1302 -110L1139 -253L763 48L919 194ZM1305 768V688Q1305 523 1262 392T1139 169T948 29T702 -20Q568 -20 458 28T266 169T141 392T96 688V768Q96 933 140 1063T264 1286T455 1427T700 1476Q835 1476 946 1428T1138
1287T1261 1064T1305 768ZM1053 688V770Q1053 892 1030 985T961 1142T850 1238T700 1271Q618 1271 553 1239T442 1143T372 986T348 770V688Q348 566 372 472T442 314T554 217T702 184Q786 184 851 216T961 313T1029 472T1053 688Z" />
<glyph unicode="R" horiz-adv-x="1289" d="M148 1456H663Q829 1456 946 1406T1125 1259T1188 1018Q1188 909 1148 826T1035 687T861 599L785 562H322L320 761H667Q757 761 817 793T907 880T938 1006Q938 1082 909 1138T818 1225T663 1256H399V0H148V1456ZM979
0L637 654L900 655L1247 13V0H979Z" />
<glyph unicode="S" horiz-adv-x="1240" d="M914 375Q914 420 901 455T853 519T758 575T601 632Q497 664 410 703T257 795T156 916T120 1075Q120 1164 157 1237T264 1363T429 1446T639 1476Q801 1476 918 1416T1099 1255T1163 1032H914Q914 1104 884 1159T792 1247T636
1279Q547 1279 488 1252T400 1179T371 1075Q371 1034 390 1001T448 939T546 885T685 837Q806 801 896 758T1046 659T1136 535T1166 377Q1166 285 1129 212T1024 87T860 8T647 -20Q542 -20 441 8T256 93T124 237T75 440H326Q326 369 350 319T419 238T521 191T647
176Q735 176 794 201T884 271T914 375Z" />
<glyph unicode="T" horiz-adv-x="1248" d="M747 1456V0H498V1456H747ZM1204 1456V1256H45V1456H1204Z" />
<glyph unicode="U" horiz-adv-x="1340" d="M965 1456H1215V483Q1215 317 1143 205T948 37T672 -20Q515 -20 392 36T199 205T128 483V1456H378V483Q378 378 414 311T516 211T672 179Q762 179 827 211T929 310T965 483V1456Z" />
<glyph unicode="V" horiz-adv-x="1322" d="M647 266L1030 1456H1307L785 0H598L647 266ZM293 1456L673 266L725 0H537L17 1456H293Z" />
<glyph unicode="W" horiz-adv-x="1803" d="M513 327L803 1456H955L938 1165L628 0H470L513 327ZM296 1456L531 336L552 0H384L47 1456H296ZM1284 339L1516 1456H1766L1429 0H1261L1284 339ZM1014 1456L1301 324L1343 0H1185L880 1165L864 1456H1014Z" />
<glyph unicode="X" horiz-adv-x="1293" d="M339 1456L648 925L957 1456H1246L806 735L1257 0H965L648 541L331 0H38L490 735L49 1456H339Z" />
<glyph unicode="Y" horiz-adv-x="1251" d="M287 1456L625 761L963 1456H1241L751 536V0H498V536L8 1456H287Z" />
<glyph unicode="Z" horiz-adv-x="1235" d="M1166 199V0H155V199H1166ZM1143 1301L248 0H80V159L978 1456H1143V1301ZM1050 1456V1256H86V1456H1050Z" />
<glyph unicode="[" horiz-adv-x="556" d="M538 1679V1493H374V-139H538V-326H133V1679H538Z" />
<glyph unicode="\" horiz-adv-x="853" d="M626 -125L18 1456H259L867 -125H626Z" />
<glyph unicode="]" horiz-adv-x="556" d="M11 1493V1679H418V-326H11V-139H177V1493H11Z" />
<glyph unicode="^" horiz-adv-x="878" d="M449 1227L256 729H54L353 1456H493L449 1227ZM622 729L429 1227L385 1456H526L824 729H622Z" />
<glyph unicode="_" horiz-adv-x="917" d="M914 0V-188H2V0H914Z" />
<glyph unicode="`" horiz-adv-x="656" d="M329 1536L524 1235H323L56 1536H329Z" />
<glyph unicode="a" horiz-adv-x="1104" d="M734 217V733Q734 791 713 833T650 898T543 921Q484 921 441 901T374 847T350 770H110Q110 834 141 894T231 1001T372 1075T556 1102Q678 1102 772 1061T921 938T976 731V250Q976 176 986 118T1017 16V0H770Q753 39 744
99T734 217ZM769 658L771 509H598Q531 509 480 497T395 460T344 402T327 325Q327 282 347 247T405 191T499 171Q573 171 628 201T716 276T750 361L828 254Q816 213 787 166T712 77T601 7T452 -20Q346 -20 263 22T133 137T86 302Q86 388 118 454T214 566T370 634T580
658H769Z" />
<glyph unicode="b" horiz-adv-x="1151" d="M125 1536H366V231L343 0H125V1536ZM1072 551V530Q1072 410 1046 310T966 135T834 21T652 -20Q551 -20 476 18T351 126T269 293T225 507V574Q238 692 269 788T350 955T475 1064T650 1102Q754 1102 833 1062T966 949T1045
774T1072 551ZM831 530V551Q831 624 819 688T780 802T706 879T590 908Q526 908 480 886T403 826T355 738T331 630V449Q340 374 369 312T453 212T592 174Q659 174 705 201T778 276T818 390T831 530Z" />
<glyph unicode="c" horiz-adv-x="1069" d="M566 172Q625 172 672 195T749 261T782 358H1009Q1007 253 947 167T788 31T569 -20Q445 -20 353 22T200 140T109 313T78 523V558Q78 670 108 768T200 942T353 1059T568 1102Q698 1102 796 1051T950 908T1009 695H782Q779
755 753 803T679 881T565 910Q492 910 444 881T369 801T331 688T319 558V523Q319 456 330 393T368 281T444 202T566 172Z" />
<glyph unicode="d" horiz-adv-x="1154" d="M784 224V1536H1026V0H807L784 224ZM80 529V550Q80 673 109 774T193 949T327 1062T505 1102Q603 1102 677 1064T803 956T886 788T930 571V504Q917 388 886 292T803 126T677 18T503 -20Q405 -20 327 21T193 136T109 310T80
529ZM321 550V529Q321 455 334 391T377 279T452 203T564 175Q646 175 699 211T782 308T824 446V627Q818 686 800 737T750 826T674 886T566 908Q500 908 454 880T379 803T335 689T321 550Z" />
<glyph unicode="e" horiz-adv-x="1097" d="M601 -20Q481 -20 385 19T221 130T117 297T81 504V544Q81 671 118 774T221 950T377 1063T572 1102Q688 1102 775 1063T919 954T1005 786T1034 572V469H198V642H796V661Q794 726 771 783T699 875T571 910Q511 910 465
885T387 811T340 696T323 544V504Q323 433 342 373T400 267T492 197T615 171Q702 171 770 206T888 305L1015 182Q980 131 924 85T788 9T601 -20Z" />
<glyph unicode="f" horiz-adv-x="723" d="M450 0H209V1186Q209 1307 254 1389T385 1514T586 1557Q622 1557 657 1553T725 1539L719 1353Q699 1358 676 1360T625 1362Q570 1362 531 1342T471 1282T450 1186V0ZM673 1082V906H43V1082H673Z" />
<glyph unicode="g" horiz-adv-x="1161" d="M817 1082H1036V30Q1036 -116 974 -218T801 -373T544 -427Q482 -427 407 -409T261 -352T143 -248L256 -106Q314 -175 384 -207T531 -239Q614 -239 672 -209T763 -119T795 25V837L817 1082ZM82 529V550Q82 673 112 774T198
949T334 1062T515 1102Q620 1102 694 1064T819 956T897 788T940 571V504Q927 388 896 292T814 126T689 18T513 -20Q414 -20 335 21T199 136T112 310T82 529ZM323 550V529Q323 455 337 391T382 279T460 203T573 175Q658 175 712 211T796 308T838 446V627Q832 686
814 737T764 826T686 886T575 908Q510 908 462 880T384 803T338 689T323 550Z" />
<glyph unicode="h" horiz-adv-x="1138" d="M362 1536V0H122V1536H362ZM320 581L242 582Q243 694 273 789T359 954T493 1063T666 1102Q746 1102 810 1080T922 1010T993 884T1018 695V0H776V697Q776 775 754 821T688 887T583 908Q518 908 469 882T386 811T337 707T320 581Z" />
<glyph unicode="i" horiz-adv-x="522" d="M382 1082V0H140V1082H382ZM124 1366Q124 1421 160 1457T262 1494Q326 1494 363 1458T400 1366Q400 1312 363 1276T262 1240Q197 1240 161 1276T124 1366Z" />
<glyph unicode="j" horiz-adv-x="514" d="M136 1082H378V-94Q378 -205 340 -281T228 -397T47 -437Q15 -437 -19 -433T-85 -420L-84 -232Q-63 -236 -40 -238T5 -241Q48 -241 77 -226T121 -179T136 -94V1082ZM115 1366Q115 1421 152 1457T253 1494Q318 1494 354
1458T391 1366Q391 1312 355 1276T253 1240Q189 1240 152 1276T115 1366Z" />
<glyph unicode="k" horiz-adv-x="1068" d="M367 1536V0H125V1536H367ZM1039 1082L568 560L310 296L247 500L442 741L748 1082H1039ZM800 0L449 508L601 677L1079 0H800Z" />
<glyph unicode="l" horiz-adv-x="522" d="M382 1536V0H140V1536H382Z" />
<glyph unicode="m" horiz-adv-x="1784" d="M365 862V0H124V1082H351L365 862ZM326 581L244 582Q244 694 272 789T354 954T488 1063T675 1102Q749 1102 810 1081T917 1013T987 895T1012 721V0H771V700Q771 779 748 824T681 888T577 908Q509 908 462 882T384 811T340
707T326 581ZM997 645L884 620Q884 718 911 805T992 959T1125 1064T1306 1102Q1389 1102 1454 1080T1566 1009T1636 885T1660 700V0H1418V701Q1418 783 1395 828T1328 890T1225 908Q1169 908 1127 888T1055 831T1012 747T997 645Z" />
<glyph unicode="n" horiz-adv-x="1140" d="M363 851V0H122V1082H349L363 851ZM320 581L242 582Q243 697 274 793T362 958T498 1064T674 1102Q752 1102 815 1081T924 1011T994 887T1018 699V0H776V700Q776 778 754 823T689 888T583 908Q521 908 472 882T390 811T338
707T320 581Z" />
<glyph unicode="o" horiz-adv-x="1162" d="M78 529V552Q78 669 112 769T210 944T368 1060T580 1102Q699 1102 792 1061T951 945T1050 770T1084 552V529Q1084 412 1050 312T951 138T793 22T582 -20Q463 -20 370 21T211 137T112 312T78 529ZM319 552V529Q319 456
334 391T381 277T463 200T582 172Q649 172 698 200T780 277T827 391T843 529V552Q843 624 828 688T780 803T698 881T580 910Q512 910 463 882T381 803T334 689T319 552Z" />
<glyph unicode="p" horiz-adv-x="1151" d="M366 874V-416H125V1082H347L366 874ZM1071 551V530Q1071 412 1044 312T963 137T831 21T651 -20Q550 -20 475 17T347 124T264 286T219 492V573Q232 692 263 789T347 956T474 1064T649 1102Q751 1102 830 1063T963 951T1044
777T1071 551ZM830 530V551Q830 626 816 690T772 804T696 880T584 908Q520 908 474 887T397 827T349 739T325 629V435Q337 363 366 303T448 208T586 172Q651 172 697 200T772 277T816 392T830 530Z" />
<glyph unicode="q" horiz-adv-x="1159" d="M783 -416V867L811 1082H1026V-416H783ZM80 530V551Q80 674 108 775T191 950T325 1062T507 1102Q607 1102 681 1064T807 956T890 788T935 572V505Q922 389 891 293T808 127T681 19T505 -20Q404 -20 325 21T192 136T109
311T80 530ZM321 551V530Q321 456 334 392T378 278T454 200T565 172Q650 172 704 209T788 308T830 447V628Q823 687 805 738T756 828T678 888T567 910Q502 910 455 882T379 805T335 690T321 551Z" />
<glyph unicode="r" horiz-adv-x="724" d="M366 876V0H125V1082H355L366 876ZM697 1089L695 865Q673 869 648 871T597 873Q535 873 488 856T410 806T361 727T341 624L286 620Q286 722 306 809T366 962T468 1065T611 1102Q633 1102 658 1098T697 1089Z" />
<glyph unicode="s" horiz-adv-x="1054" d="M731 293Q731 329 713 358T645 412T496 456Q410 475 339 501T216 566T137 656T109 776Q109 842 138 901T221 1005T352 1076T526 1102Q662 1102 759 1057T909 934T961 759H720Q720 802 699 839T634 900T526 924Q464 924
424 905T364 854T344 786Q344 759 354 738T390 699T458 666T568 637Q692 611 781 571T919 467T967 306Q967 234 937 175T848 72T710 4T529 -20Q382 -20 280 32T126 167T73 339H306Q310 272 343 233T427 176T532 158Q597 158 641 175T708 223T731 293Z" />
<glyph unicode="t" horiz-adv-x="682" d="M620 1082V906H10V1082H620ZM186 1347H427V299Q427 249 441 223T482 187T543 178Q568 178 591 181T628 187L629 3Q599 -6 560 -13T469 -20Q386 -20 322 9T222 106T186 284V1347Z" />
<glyph unicode="u" horiz-adv-x="1139" d="M775 255V1082H1017V0H789L775 255ZM809 480L890 482Q890 373 866 282T792 123T664 18T477 -20Q398 -20 332 3T219 74T145 199T119 383V1082H360V381Q360 322 374 283T412 219T468 185T536 175Q639 175 698 215T783 325T809
480Z" />
<glyph unicode="v" horiz-adv-x="1016" d="M476 191L741 1082H991L615 0H459L476 191ZM273 1082L543 187L556 0H400L22 1082H273Z" />
<glyph unicode="w" horiz-adv-x="1520" d="M418 240L668 1082H822L780 830L528 0H390L418 240ZM271 1082L466 236L482 0H328L35 1082H271ZM1056 246L1245 1082H1480L1188 0H1034L1056 246ZM848 1082L1095 250L1126 0H988L733 831L691 1082H848Z" />
<glyph unicode="x" horiz-adv-x="1030" d="M308 1082L514 723L724 1082H989L661 551L1002 0H737L517 374L297 0H31L371 551L44 1082H308Z" />
<glyph unicode="y" horiz-adv-x="1003" d="M438 118L732 1082H990L556 -165Q541 -205 517 -252T455 -341T359 -410T221 -437Q189 -437 160 -432T104 -420L103 -236Q113 -237 127 -238T151 -239Q211 -239 251 -225T316 -178T360 -92L438 118ZM272 1082L529 272L572
18L405 -25L12 1082H272Z" />
<glyph unicode="z" horiz-adv-x="1030" d="M961 192V0H155V192H961ZM939 932L237 0H81V155L779 1082H939V932ZM846 1082V890H93V1082H846Z" />
<glyph unicode="{" horiz-adv-x="683" d="M606 1597L654 1460Q551 1425 513 1336T474 1132V926Q474 826 432 744T297 614T56 566V704Q159 704 204 764T249 926V1132Q249 1237 281 1328T392 1489T606 1597ZM654 -226L606 -364Q470 -325 392 -256T282 -95T249 102V306Q249
375 229 424T167 501T56 529V668Q205 668 297 620T431 490T474 306V102Q474 25 490 -40T546 -154T654 -226Z" />
<glyph unicode="|" horiz-adv-x="509" d="M336 1456V-270H175V1456H336Z" />
<glyph unicode="}" horiz-adv-x="683" d="M28 1460L76 1597Q213 1559 291 1490T401 1329T433 1132V926Q433 859 453 809T516 732T627 704V572Q479 572 386 618T251 745T208 926V1132Q208 1209 192 1275T137 1389T28 1460ZM76 -364L28 -226Q97 -202 136 -154T191
-41T208 102V306Q208 408 250 488T386 614T627 661V529Q525 529 479 469T433 306V102Q433 -3 401 -94T291 -255T76 -364Z" />
<glyph unicode="~" horiz-adv-x="1357" d="M1054 785L1239 786Q1239 700 1215 628T1148 502T1044 420T911 390Q827 390 763 423T624 525Q578 569 538 592T452 616Q407 616 375 593T325 526T307 426H117Q117 513 141 584T208 707T312 787T444 815Q528 815 595 780T733
680Q781 634 820 611T903 588Q948 588 982 613T1035 684T1054 785Z" />
<glyph unicode="&#xa0;" horiz-adv-x="509" />
<glyph unicode="&#xa1;" horiz-adv-x="543" d="M146 -365L171 662H377L402 -365H146ZM409 973Q409 919 373 882T271 844Q207 844 170 881T133 973Q133 1027 170 1064T271 1101Q336 1101 372 1064T409 973Z" />
<glyph unicode="&#xa2;" horiz-adv-x="1154" d="M685 1318V1029H494V1318H685ZM685 43V-245H494V43H685ZM591 172Q650 172 698 195T775 261T807 358H1035Q1032 253 972 167T813 31T594 -20Q470 -20 378 22T224 140T133 313T103 523V558Q103 670 133 768T224 942T378
1059T593 1102Q723 1102 821 1051T975 908T1035 695H807Q804 755 778 803T704 881T590 910Q517 910 469 881T394 801T356 688T344 558V523Q344 456 355 393T393 281T469 202T591 172Z" />
<glyph unicode="&#xa3;" horiz-adv-x="1205" d="M1146 0H99V199H1145L1146 0ZM820 600H95V795H820V600ZM496 1039L519 419Q520 323 485 248T368 129L186 199Q219 207 236 241T260 322T267 410L246 1039Q246 1177 303 1274T462 1424T694 1476Q833 1476 930 1425T1078
1284T1129 1073H887Q887 1148 859 1192T786 1257T687 1277Q633 1277 590 1250T521 1170T496 1039Z" />
<glyph unicode="&#xa4;" horiz-adv-x="1438" d="M304 608Q304 515 336 433T426 290T559 195T722 160Q809 160 884 194T1017 290T1107 433T1139 608Q1139 702 1107 783T1018 925T885 1020T722 1055Q635 1055 560 1021T427 925T337 783T304 608ZM127 608Q127 741
173 855T301 1054T491 1186T722 1234Q845 1234 953 1187T1143 1054T1271 855T1317 608Q1317 475 1271 361T1143 162T953 28T722 -20Q599 -20 491 28T302 161T174 361T127 608ZM1358 1125L1156 919L1020 1059L1222 1265L1358 1125ZM428 180L226 -26L92 113L294 318L428
180ZM1222 -27L1020 179L1156 318L1358 113L1222 -27ZM294 919L92 1125L226 1264L428 1058L294 919Z" />
<glyph unicode="&#xa5;" horiz-adv-x="1088" d="M971 739V590H103V739H971ZM971 448V300H103V448H971ZM480 689L808 1456H1074L656 580H510L480 689ZM282 1456L613 681L579 580H433L13 1456H282ZM665 766V0H415V766H665Z" />
<glyph unicode="&#xa6;" horiz-adv-x="504" d="M362 -270H137V523H362V-270ZM362 1456V698H137V1456H362Z" />
<glyph unicode="&#xa7;" horiz-adv-x="1273" d="M687 124V254Q763 254 816 278T897 344T925 440Q925 482 909 513T856 571T757 623T601 677Q490 707 403 742T255 826T163 941T131 1103Q131 1188 166 1257T268 1375T427 1450T636 1477Q793 1477 906 1427T1081 1282T1142
1048H901Q901 1114 871 1167T782 1253T636 1285Q544 1285 486 1261T400 1196T372 1105Q372 1062 386 1031T434 975T530 928T688 879Q802 849 890 813T1039 730T1132 615T1164 456Q1164 376 1130 314T1034 210T883 146T687 124ZM555 875V743Q480 743 432 719T360
654T337 559Q337 514 350 482T399 423T497 374T657 322Q770 291 858 256T1006 173T1097 58T1129 -104Q1129 -192 1094 -261T992 -377T833 -449T626 -474Q527 -474 432 -453T260 -383T138 -252T92 -50L333 -48Q333 -116 359 -161T427 -233T522 -270T626 -282Q710
-282 768 -259T857 -197T888 -106Q888 -66 873 -36T821 19T724 69T570 120Q459 150 371 185T222 269T129 384T96 543Q96 621 128 682T221 786T366 852T555 875Z" />
<glyph unicode="&#xa8;" horiz-adv-x="914" d="M99 1369Q99 1418 133 1451T223 1485Q280 1485 314 1452T348 1369Q348 1321 314 1288T223 1254Q167 1254 133 1287T99 1369ZM562 1368Q562 1417 596 1450T687 1484Q743 1484 777 1451T812 1368Q812 1320 778 1287T687
1253Q630 1253 596 1286T562 1368Z" />
<glyph unicode="&#xa9;" horiz-adv-x="1609" d="M969 597H1119Q1119 440 1030 362T786 283Q679 283 602 332T482 468T439 670V787Q439 902 481 989T601 1125T786 1174Q940 1174 1030 1096T1120 860H970Q970 958 924 1000T786 1043Q721 1043 677 1011T610 920T587
788V670Q587 595 609 537T676 447T786 414Q877 414 923 456T969 597ZM207 729Q207 596 253 482T380 282T569 149T800 101Q922 101 1029 148T1217 281T1345 481T1391 729Q1391 862 1345 976T1218 1175T1029 1307T800 1355Q677 1355 570 1308T381 1175T253 976T207
729ZM90 729Q90 888 145 1024T298 1261T524 1419T800 1476Q947 1476 1075 1420T1301 1262T1454 1024T1509 729Q1509 570 1454 434T1302 196T1076 36T800 -21Q653 -21 525 36T298 195T145 434T90 729Z" />
<glyph unicode="&#xaa;" horiz-adv-x="912" d="M588 862V1202Q588 1244 575 1273T535 1318T467 1333Q400 1333 362 1307T323 1230L158 1244Q158 1312 196 1364T304 1447T467 1477Q554 1477 618 1446T719 1354T756 1201V887Q756 838 762 794T782 706H612Q588 779
588 862ZM629 1149L630 1036H483Q424 1036 386 1021T329 979T310 922Q310 880 339 856T432 831Q474 831 516 850T588 897T617 949L635 836Q620 804 589 770T508 714T391 692Q271 692 207 753T142 918Q142 992 179 1043T292 1122T482 1149H629Z" />
<glyph unicode="&#xab;" horiz-adv-x="995" d="M795 1191L544 788L343 789V802L630 1191H795ZM544 797L795 393H630L343 783V796L544 797ZM901 935L650 532L449 533V546L736 935H901ZM650 541L901 137H736L449 527V540L650 541Z" />
<glyph unicode="&#xac;" horiz-adv-x="1131" d="M959 802V637H127V802H959ZM959 727V375H769V727H959Z" />
<glyph unicode="&#xad;" horiz-adv-x="696" d="M609 718V526H80V718H609Z" />
<glyph unicode="&#xae;" horiz-adv-x="1610" d="M824 654H608L606 784H799Q843 785 881 798T942 838T965 904Q965 953 949 982T893 1023T786 1036H653V317H508V1165H786Q885 1165 957 1137T1069 1051T1109 907Q1109 853 1084 811T1011 739T892 689Q889 689 886
682T879 675Q862 665 858 661T849 655T824 654ZM814 654L835 753Q991 753 1048 686T1105 514V460Q1105 423 1108 390T1122 333V317H973Q963 343 962 391T960 461V513Q960 586 927 620T814 654ZM207 729Q207 596 252 482T380 282T569 149T799 101Q922 101 1029 148T1217
281T1344 481T1390 729Q1390 862 1344 976T1217 1175T1029 1307T799 1355Q677 1355 570 1308T380 1175T253 976T207 729ZM89 729Q89 888 144 1024T297 1261T523 1419T799 1476Q946 1476 1074 1420T1300 1262T1453 1024T1509 729Q1509 570 1454 434T1301 196T1075
36T799 -21Q652 -21 524 36T297 195T144 434T89 729Z" />
<glyph unicode="&#xaf;" horiz-adv-x="986" d="M836 1450V1296H157V1450H836Z" />
<glyph unicode="&#xb0;" horiz-adv-x="783" d="M129 1209Q129 1282 165 1343T261 1440T393 1477Q465 1477 524 1441T618 1343T654 1209Q654 1136 619 1076T524 980T393 945Q322 945 262 980T165 1075T129 1209ZM264 1209Q264 1155 302 1119T393 1082Q446 1082
482 1118T518 1209Q518 1265 482 1302T393 1339Q340 1339 302 1302T264 1209Z" />
<glyph unicode="&#xb1;" horiz-adv-x="1098" d="M1008 899V703H92V899H1008ZM664 1277V313H451V1277H664ZM974 194V1H123V194H974Z" />
<glyph unicode="&#xb2;" horiz-adv-x="757" d="M688 812V667H79V789L366 1054Q407 1091 431 1122T467 1180T479 1224Q479 1267 451 1294T370 1322Q306 1322 275 1287T243 1200H61Q61 1273 97 1334T201 1431T363 1467Q458 1467 524 1438T626 1355T662 1225Q662
1170 638 1124T569 1031T456 930L315 812H688Z" />
<glyph unicode="&#xb3;" horiz-adv-x="757" d="M270 1132H357Q400 1132 428 1144T470 1179T485 1231Q485 1267 458 1294T366 1322Q317 1322 284 1302T250 1244H68Q68 1315 108 1365T215 1441T361 1467Q452 1467 521 1442T628 1366T667 1242Q667 1185 632 1141T534
1073T387 1048H270V1132ZM270 1007V1089H387Q480 1089 546 1068T646 1002T681 888Q681 814 639 762T525 683T362 656Q287 656 217 680T101 758T55 897H238Q238 858 274 830T371 802Q436 802 467 830T499 902Q499 940 482 963T432 996T357 1007H270Z" />
<glyph unicode="&#xb4;" horiz-adv-x="660" d="M111 1235L306 1536H578L306 1235H111Z" />
<glyph unicode="&#xb5;" horiz-adv-x="1217" d="M818 1082H1060V0H837L818 250V1082ZM853 503L948 505Q948 391 927 295T861 128T748 18T587 -21Q513 -21 454 0T352 68T281 188L250 461H387Q387 371 402 314T444 227T507 184T587 172Q666 172 717 196T798 265T840
370T853 503ZM147 1082H387V-416H147V1082Z" />
<glyph unicode="&#xb6;" horiz-adv-x="1002" d="M852 0H651V520H565Q406 520 297 580T130 747T73 988Q73 1122 130 1228T296 1395T565 1456H852V0Z" />
<glyph unicode="&#xb7;" horiz-adv-x="580" d="M144 713Q144 769 181 807T285 846Q351 846 388 808T426 713Q426 657 389 620T285 582Q219 582 182 619T144 713Z" />
<glyph unicode="&#xb8;" horiz-adv-x="531" d="M139 4H318L306 -52Q363 -62 410 -100T458 -225Q458 -276 437 -317T375 -387T272 -433T129 -449L122 -313Q161 -313 192 -304T241 -274T260 -222Q260 -191 244 -174T195 -148T108 -135L139 4Z" />
<glyph unicode="&#xb9;" horiz-adv-x="757" d="M513 1455V667H332V1243L130 1194V1337L494 1455H513Z" />
<glyph unicode="&#xba;" horiz-adv-x="935" d="M121 1043V1123Q121 1226 163 1306T282 1431T465 1477Q571 1477 648 1432T766 1306T808 1123V1043Q808 940 767 861T649 736T467 691Q360 691 283 736T164 860T121 1043ZM289 1123V1043Q289 983 308 935T367 860T467
832Q526 832 564 859T622 935T642 1043V1123Q642 1183 622 1230T564 1305T465 1333Q406 1333 367 1305T308 1230T289 1123Z" />
<glyph unicode="&#xbb;" horiz-adv-x="995" d="M94 139L345 542L547 541V528L260 139H94ZM94 936H260L547 547V534L345 533L94 936ZM466 139L717 542L919 541V528L632 139H466ZM466 936H632L919 547V534L717 533L466 936Z" />
<glyph unicode="&#xbc;" horiz-adv-x="1482" d="M478 1452V664H297V1240L95 1191V1334L459 1452H478ZM1162 1256L451 118L327 189L1038 1327L1162 1256ZM1405 313V165H766L756 283L1123 789H1266L1109 539L933 313H1405ZM1307 789V0H1125V789H1307Z" />
<glyph unicode="&#xbd;" horiz-adv-x="1570" d="M1119 1256L408 118L284 189L995 1327L1119 1256ZM466 1455V667H285V1243L83 1194V1337L447 1455H466ZM1477 145V0H868V122L1155 387Q1196 424 1220 455T1256 513T1268 557Q1268 600 1240 627T1159 655Q1095 655
1064 620T1032 533H850Q850 606 886 667T990 764T1152 800Q1247 800 1313 771T1415 688T1451 558Q1451 503 1427 457T1358 364T1245 263L1104 145H1477Z" />
<glyph unicode="&#xbe;" horiz-adv-x="1628" d="M1309 1256L598 118L474 189L1185 1327L1309 1256ZM1536 313V165H897L887 283L1254 789H1397L1240 539L1064 313H1536ZM1438 789V0H1256V789H1438ZM317 1132H404Q447 1132 475 1144T517 1179T532 1231Q532 1267
505 1294T413 1322Q364 1322 331 1302T297 1244H115Q115 1315 155 1365T262 1441T408 1467Q499 1467 568 1442T675 1366T714 1242Q714 1185 679 1141T581 1073T434 1048H317V1132ZM317 1007V1089H434Q527 1089 593 1068T693 1002T728 888Q728 814 686 762T572 683T409
656Q334 656 264 680T148 758T102 897H285Q285 858 321 830T418 802Q483 802 514 830T546 902Q546 940 529 963T479 996T404 1007H317Z" />
<glyph unicode="&#xbf;" horiz-adv-x="997" d="M408 662H631Q631 569 617 507T569 394T475 283Q431 239 394 199T335 113T312 4Q312 -59 334 -102T397 -166T498 -188Q550 -188 594 -168T665 -105T694 1H935Q934 -125 876 -211T721 -342T501 -386Q365 -386 269
-341T121 -209T70 0Q70 90 106 163T198 299T318 421Q355 456 374 492T401 570T408 662ZM655 974Q655 920 619 883T518 845Q453 845 416 882T379 974Q379 1028 416 1065T518 1102Q582 1102 618 1065T655 974Z" />
<glyph unicode="&#xc0;" horiz-adv-x="1358" d="M715 1262L280 0H17L565 1456H733L715 1262ZM1079 0L643 1262L624 1456H793L1343 0H1079ZM1058 540V341H266V540H1058ZM612 1847L807 1546H606L339 1847H612Z" />
<glyph unicode="&#xc1;" horiz-adv-x="1358" d="M715 1262L280 0H17L565 1456H733L715 1262ZM1079 0L643 1262L624 1456H793L1343 0H1079ZM1058 540V341H266V540H1058ZM561 1546L756 1847H1028L756 1546H561Z" />
<glyph unicode="&#xc2;" horiz-adv-x="1358" d="M715 1262L280 0H17L565 1456H733L715 1262ZM1079 0L643 1262L624 1456H793L1343 0H1079ZM1058 540V341H266V540H1058ZM753 1847L1030 1571V1560H835L682 1717L529 1560H338V1573L611 1847H753Z" />
<glyph unicode="&#xc3;" horiz-adv-x="1358" d="M715 1262L280 0H17L565 1456H733L715 1262ZM1079 0L643 1262L624 1456H793L1343 0H1079ZM1058 540V341H266V540H1058ZM901 1834L1048 1823Q1048 1750 1019 1693T940 1602T827 1569Q778 1569 744 1583T682 1615T625
1646T555 1660Q517 1660 491 1632T464 1557L316 1565Q316 1637 345 1695T424 1787T537 1821Q578 1821 611 1808T675 1776T738 1744T809 1730Q847 1730 874 1759T901 1834Z" />
<glyph unicode="&#xc4;" horiz-adv-x="1358" d="M715 1262L280 0H17L565 1456H733L715 1262ZM1079 0L643 1262L624 1456H793L1343 0H1079ZM1058 540V341H266V540H1058ZM327 1680Q327 1729 361 1762T451 1796Q508 1796 542 1763T576 1680Q576 1632 542 1599T451
1565Q395 1565 361 1598T327 1680ZM790 1679Q790 1728 824 1761T915 1795Q971 1795 1005 1762T1040 1679Q1040 1631 1006 1598T915 1564Q858 1564 824 1597T790 1679Z" />
<glyph unicode="&#xc5;" horiz-adv-x="1358" d="M715 1262L280 0H17L565 1456H733L715 1262ZM1079 0L643 1262L624 1456H793L1343 0H1079ZM1058 540V341H266V540H1058ZM464 1731Q464 1788 493 1834T571 1909T683 1937Q776 1937 838 1877T901 1731Q901 1674 873
1628T795 1556T683 1529Q589 1529 527 1587T464 1731ZM571 1731Q571 1687 602 1654T683 1620Q733 1620 763 1653T794 1731Q794 1777 764 1810T683 1844Q633 1844 602 1811T571 1731Z" />
<glyph unicode="&#xc6;" horiz-adv-x="1918" d="M984 1304L283 0H-4L824 1456H977L984 1304ZM1105 554V344H358V554H1105ZM1870 193V0H1137V193H1870ZM1161 1456L1222 0H981L920 1456H1161ZM1727 849V656H1097V849H1727ZM1808 1456V1263H1076V1456H1808Z" />
<glyph unicode="&#xc7;" horiz-adv-x="1337" d="M1008 474H1258Q1246 331 1178 220T987 44T688 -20Q553 -20 445 28T260 166T143 383T102 667V788Q102 945 143 1072T263 1289T450 1428T697 1476Q871 1476 991 1412T1177 1235T1259 976H1009Q999 1070 966 1137T867
1239T697 1275Q611 1275 547 1243T440 1149T376 997T354 790V667Q354 557 373 468T433 314T537 215T688 180Q795 180 861 214T962 313T1008 474ZM598 -2H777L765 -58Q822 -68 869 -106T917 -231Q917 -282 896 -323T834 -393T731 -439T588 -455L581 -319Q620 -319
651 -310T700 -280T719 -228Q719 -197 703 -180T654 -154T567 -141L598 -2Z" />
<glyph unicode="&#xc8;" horiz-adv-x="1157" d="M1101 199V0H328V199H1101ZM399 1456V0H148V1456H399ZM1000 848V652H328V848H1000ZM1096 1456V1256H328V1456H1096ZM558 1854L753 1553H552L285 1854H558Z" />
<glyph unicode="&#xc9;" horiz-adv-x="1157" d="M1101 199V0H328V199H1101ZM399 1456V0H148V1456H399ZM1000 848V652H328V848H1000ZM1096 1456V1256H328V1456H1096ZM507 1553L702 1854H974L702 1553H507Z" />
<glyph unicode="&#xca;" horiz-adv-x="1157" d="M1101 199V0H328V199H1101ZM399 1456V0H148V1456H399ZM1000 848V652H328V848H1000ZM1096 1456V1256H328V1456H1096ZM700 1854L977 1578V1567H782L629 1724L476 1567H285V1580L558 1854H700Z" />
<glyph unicode="&#xcb;" horiz-adv-x="1157" d="M1101 199V0H328V199H1101ZM399 1456V0H148V1456H399ZM1000 848V652H328V848H1000ZM1096 1456V1256H328V1456H1096ZM273 1687Q273 1736 307 1769T397 1803Q454 1803 488 1770T522 1687Q522 1639 488 1606T397 1572Q341
1572 307 1605T273 1687ZM736 1686Q736 1735 770 1768T861 1802Q917 1802 951 1769T986 1686Q986 1638 952 1605T861 1571Q804 1571 770 1604T736 1686Z" />
<glyph unicode="&#xcc;" horiz-adv-x="580" d="M416 1456V0H165V1456H416ZM220 1854L415 1553H214L-53 1854H220Z" />
<glyph unicode="&#xcd;" horiz-adv-x="580" d="M416 1456V0H165V1456H416ZM169 1553L364 1854H636L364 1553H169Z" />
<glyph unicode="&#xce;" horiz-adv-x="580" d="M416 1456V0H165V1456H416ZM361 1854L638 1578V1567H443L290 1724L137 1567H-54V1580L219 1854H361Z" />
<glyph unicode="&#xcf;" horiz-adv-x="580" d="M416 1456V0H165V1456H416ZM-66 1687Q-66 1736 -32 1769T58 1803Q115 1803 149 1770T183 1687Q183 1639 149 1606T58 1572Q2 1572 -32 1605T-66 1687ZM397 1686Q397 1735 431 1768T522 1802Q578 1802 612 1769T647
1686Q647 1638 613 1605T522 1571Q465 1571 431 1604T397 1686Z" />
<glyph unicode="&#xd0;" horiz-adv-x="1367" d="M601 0H290L292 199H601Q736 199 827 258T965 427T1012 689V768Q1012 886 986 977T908 1130T782 1224T610 1256H284V1456H610Q755 1456 875 1408T1082 1268T1217 1050T1264 766V689Q1264 532 1217 405T1082 188T873
49T601 0ZM429 1456V0H178V1456H429ZM695 820V654H23V820H695Z" />
<glyph unicode="&#xd1;" horiz-adv-x="1453" d="M1303 1456V0H1052L399 1043V0H148V1456H399L1054 411V1456H1303ZM945 1834L1092 1823Q1092 1750 1063 1693T984 1602T871 1569Q822 1569 788 1583T726 1615T669 1646T599 1660Q561 1660 535 1632T508 1557L360
1565Q360 1637 389 1695T468 1787T581 1821Q622 1821 655 1808T719 1776T782 1744T853 1730Q891 1730 918 1759T945 1834Z" />
<glyph unicode="&#xd2;" horiz-adv-x="1411" d="M1309 768V688Q1309 523 1266 392T1144 169T953 29T707 -20Q573 -20 463 28T271 169T146 392T101 688V768Q101 933 145 1063T269 1286T460 1427T705 1476Q840 1476 951 1428T1142 1287T1265 1064T1309 768ZM1058
688V770Q1058 892 1035 985T966 1142T854 1238T705 1271Q622 1271 557 1239T447 1143T377 986T353 770V688Q353 566 377 472T447 314T559 217T707 184Q791 184 856 216T966 313T1034 472T1058 688ZM636 1848L831 1547H630L363 1848H636Z" />
<glyph unicode="&#xd3;" horiz-adv-x="1411" d="M1309 768V688Q1309 523 1266 392T1144 169T953 29T707 -20Q573 -20 463 28T271 169T146 392T101 688V768Q101 933 145 1063T269 1286T460 1427T705 1476Q840 1476 951 1428T1142 1287T1265 1064T1309 768ZM1058
688V770Q1058 892 1035 985T966 1142T854 1238T705 1271Q622 1271 557 1239T447 1143T377 986T353 770V688Q353 566 377 472T447 314T559 217T707 184Q791 184 856 216T966 313T1034 472T1058 688ZM585 1547L780 1848H1052L780 1547H585Z" />
<glyph unicode="&#xd4;" horiz-adv-x="1411" d="M1309 768V688Q1309 523 1266 392T1144 169T953 29T707 -20Q573 -20 463 28T271 169T146 392T101 688V768Q101 933 145 1063T269 1286T460 1427T705 1476Q840 1476 951 1428T1142 1287T1265 1064T1309 768ZM1058
688V770Q1058 892 1035 985T966 1142T854 1238T705 1271Q622 1271 557 1239T447 1143T377 986T353 770V688Q353 566 377 472T447 314T559 217T707 184Q791 184 856 216T966 313T1034 472T1058 688ZM777 1848L1054 1572V1561H859L706 1718L553 1561H362V1574L635
1848H777Z" />
<glyph unicode="&#xd5;" horiz-adv-x="1411" d="M1309 768V688Q1309 523 1266 392T1144 169T953 29T707 -20Q573 -20 463 28T271 169T146 392T101 688V768Q101 933 145 1063T269 1286T460 1427T705 1476Q840 1476 951 1428T1142 1287T1265 1064T1309 768ZM1058
688V770Q1058 892 1035 985T966 1142T854 1238T705 1271Q622 1271 557 1239T447 1143T377 986T353 770V688Q353 566 377 472T447 314T559 217T707 184Q791 184 856 216T966 313T1034 472T1058 688ZM925 1836L1072 1825Q1072 1752 1043 1695T964 1604T851 1571Q802
1571 768 1585T706 1617T649 1648T579 1662Q541 1662 515 1634T488 1559L340 1567Q340 1639 369 1697T448 1789T561 1823Q602 1823 635 1810T699 1778T762 1746T833 1732Q871 1732 898 1761T925 1836Z" />
<glyph unicode="&#xd6;" horiz-adv-x="1411" d="M1309 768V688Q1309 523 1266 392T1144 169T953 29T707 -20Q573 -20 463 28T271 169T146 392T101 688V768Q101 933 145 1063T269 1286T460 1427T705 1476Q840 1476 951 1428T1142 1287T1265 1064T1309 768ZM1058
688V770Q1058 892 1035 985T966 1142T854 1238T705 1271Q622 1271 557 1239T447 1143T377 986T353 770V688Q353 566 377 472T447 314T559 217T707 184Q791 184 856 216T966 313T1034 472T1058 688ZM351 1681Q351 1730 385 1763T475 1797Q532 1797 566 1764T600
1681Q600 1633 566 1600T475 1566Q419 1566 385 1599T351 1681ZM814 1680Q814 1729 848 1762T939 1796Q995 1796 1029 1763T1064 1680Q1064 1632 1030 1599T939 1565Q882 1565 848 1598T814 1680Z" />
<glyph unicode="&#xd7;" horiz-adv-x="1090" d="M222 203L76 348L855 1143L1001 997L222 203ZM857 203L78 997L224 1143L1003 348L857 203Z" />
<glyph unicode="&#xd8;" horiz-adv-x="1409" d="M1296 1517L322 -94H155L1131 1517H1296ZM1314 768V688Q1314 523 1271 392T1148 169T957 29T711 -20Q604 -20 512 11T344 102T216 248T134 445T105 688V768Q105 933 149 1063T273 1286T464 1427T709 1476Q817 1476
910 1445T1077 1353T1204 1207T1285 1011T1314 768ZM1062 688V770Q1062 867 1047 946T1003 1086T930 1188T832 1250T709 1271Q626 1271 561 1239T451 1143T381 986T357 770V688Q357 590 372 511T418 370T491 268T590 205T711 184Q795 184 860 216T970 313T1038
472T1062 688Z" />
<glyph unicode="&#xd9;" horiz-adv-x="1340" d="M965 1456H1215V483Q1215 317 1143 205T948 37T672 -20Q515 -20 392 36T199 205T128 483V1456H378V483Q378 378 414 311T516 211T672 179Q762 179 827 211T929 310T965 483V1456ZM600 1847L795 1546H594L327 1847H600Z" />
<glyph unicode="&#xda;" horiz-adv-x="1340" d="M965 1456H1215V483Q1215 317 1143 205T948 37T672 -20Q515 -20 392 36T199 205T128 483V1456H378V483Q378 378 414 311T516 211T672 179Q762 179 827 211T929 310T965 483V1456ZM549 1546L744 1847H1016L744 1546H549Z" />
<glyph unicode="&#xdb;" horiz-adv-x="1340" d="M965 1456H1215V483Q1215 317 1143 205T948 37T672 -20Q515 -20 392 36T199 205T128 483V1456H378V483Q378 378 414 311T516 211T672 179Q762 179 827 211T929 310T965 483V1456ZM741 1847L1018 1571V1560H823L670
1717L517 1560H326V1573L599 1847H741Z" />
<glyph unicode="&#xdc;" horiz-adv-x="1340" d="M965 1456H1215V483Q1215 317 1143 205T948 37T672 -20Q515 -20 392 36T199 205T128 483V1456H378V483Q378 378 414 311T516 211T672 179Q762 179 827 211T929 310T965 483V1456ZM314 1680Q314 1729 348 1762T438
1796Q495 1796 529 1763T563 1680Q563 1632 529 1599T438 1565Q382 1565 348 1598T314 1680ZM777 1679Q777 1728 811 1761T902 1795Q958 1795 992 1762T1027 1679Q1027 1631 993 1598T902 1564Q845 1564 811 1597T777 1679Z" />
<glyph unicode="&#xdd;" horiz-adv-x="1251" d="M287 1456L625 761L963 1456H1241L751 536V0H498V536L8 1456H287ZM507 1545L702 1846H974L702 1545H507Z" />
<glyph unicode="&#xde;" horiz-adv-x="1231" d="M149 1456H390V0H149V1456ZM245 1176H639Q806 1176 920 1120T1093 964T1153 738Q1153 612 1094 513T920 358T639 301H349V492H639Q737 492 796 527T883 618T911 736Q911 800 884 856T797 949T639 985H389L245 1176Z" />
<glyph unicode="&#xdf;" horiz-adv-x="1259" d="M378 1105V0H138V1107Q138 1219 169 1303T257 1443T395 1528T575 1557Q688 1557 778 1518T922 1401T976 1204Q976 1127 959 1078T918 993T878 919T860 826Q860 778 892 738T973 658T1069 573T1149 470T1182 336Q1182
220 1131 141T986 21T763 -20Q711 -20 654 -11T550 12T475 44L524 235Q557 215 619 193T752 171Q816 171 858 191T921 247T942 329Q942 382 910 423T829 502T733 583T652 684T619 820Q619 884 637 928T680 1010T722 1089T741 1189Q741 1245 719 1284T657 1345T568
1366Q509 1366 467 1340T401 1256T378 1105Z" />
<glyph unicode="&#xe0;" horiz-adv-x="1104" d="M734 217V733Q734 791 713 833T650 898T543 921Q484 921 441 901T374 847T350 770H110Q110 834 141 894T231 1001T372 1075T556 1102Q678 1102 772 1061T921 938T976 731V250Q976 176 986 118T1017 16V0H770Q753
39 744 99T734 217ZM769 658L771 509H598Q531 509 480 497T395 460T344 402T327 325Q327 282 347 247T405 191T499 171Q573 171 628 201T716 276T750 361L828 254Q816 213 787 166T712 77T601 7T452 -20Q346 -20 263 22T133 137T86 302Q86 388 118 454T214 566T370
634T580 658H769ZM495 1536L690 1235H489L222 1536H495Z" />
<glyph unicode="&#xe1;" horiz-adv-x="1104" d="M734 217V733Q734 791 713 833T650 898T543 921Q484 921 441 901T374 847T350 770H110Q110 834 141 894T231 1001T372 1075T556 1102Q678 1102 772 1061T921 938T976 731V250Q976 176 986 118T1017 16V0H770Q753
39 744 99T734 217ZM769 658L771 509H598Q531 509 480 497T395 460T344 402T327 325Q327 282 347 247T405 191T499 171Q573 171 628 201T716 276T750 361L828 254Q816 213 787 166T712 77T601 7T452 -20Q346 -20 263 22T133 137T86 302Q86 388 118 454T214 566T370
634T580 658H769ZM444 1235L639 1536H911L639 1235H444Z" />
<glyph unicode="&#xe2;" horiz-adv-x="1104" d="M734 217V733Q734 791 713 833T650 898T543 921Q484 921 441 901T374 847T350 770H110Q110 834 141 894T231 1001T372 1075T556 1102Q678 1102 772 1061T921 938T976 731V250Q976 176 986 118T1017 16V0H770Q753
39 744 99T734 217ZM769 658L771 509H598Q531 509 480 497T395 460T344 402T327 325Q327 282 347 247T405 191T499 171Q573 171 628 201T716 276T750 361L828 254Q816 213 787 166T712 77T601 7T452 -20Q346 -20 263 22T133 137T86 302Q86 388 118 454T214 566T370
634T580 658H769ZM636 1536L913 1260V1249H718L565 1406L412 1249H221V1262L494 1536H636Z" />
<glyph unicode="&#xe3;" horiz-adv-x="1104" d="M734 217V733Q734 791 713 833T650 898T543 921Q484 921 441 901T374 847T350 770H110Q110 834 141 894T231 1001T372 1075T556 1102Q678 1102 772 1061T921 938T976 731V250Q976 176 986 118T1017 16V0H770Q753
39 744 99T734 217ZM769 658L771 509H598Q531 509 480 497T395 460T344 402T327 325Q327 282 347 247T405 191T499 171Q573 171 628 201T716 276T750 361L828 254Q816 213 787 166T712 77T601 7T452 -20Q346 -20 263 22T133 137T86 302Q86 388 118 454T214 566T370
634T580 658H769ZM784 1524L931 1513Q931 1440 902 1383T823 1292T710 1259Q661 1259 627 1273T565 1305T508 1336T438 1350Q400 1350 374 1322T347 1247L199 1255Q199 1327 228 1385T307 1477T420 1511Q461 1511 494 1498T558 1466T621 1434T692 1420Q730 1420
757 1449T784 1524Z" />
<glyph unicode="&#xe4;" horiz-adv-x="1104" d="M734 217V733Q734 791 713 833T650 898T543 921Q484 921 441 901T374 847T350 770H110Q110 834 141 894T231 1001T372 1075T556 1102Q678 1102 772 1061T921 938T976 731V250Q976 176 986 118T1017 16V0H770Q753
39 744 99T734 217ZM769 658L771 509H598Q531 509 480 497T395 460T344 402T327 325Q327 282 347 247T405 191T499 171Q573 171 628 201T716 276T750 361L828 254Q816 213 787 166T712 77T601 7T452 -20Q346 -20 263 22T133 137T86 302Q86 388 118 454T214 566T370
634T580 658H769ZM210 1369Q210 1418 244 1451T334 1485Q391 1485 425 1452T459 1369Q459 1321 425 1288T334 1254Q278 1254 244 1287T210 1369ZM673 1368Q673 1417 707 1450T798 1484Q854 1484 888 1451T923 1368Q923 1320 889 1287T798 1253Q741 1253 707 1286T673
1368Z" />
<glyph unicode="&#xe5;" horiz-adv-x="1104" d="M734 217V733Q734 791 713 833T650 898T543 921Q484 921 441 901T374 847T350 770H110Q110 834 141 894T231 1001T372 1075T556 1102Q678 1102 772 1061T921 938T976 731V250Q976 176 986 118T1017 16V0H770Q753
39 744 99T734 217ZM769 658L771 509H598Q531 509 480 497T395 460T344 402T327 325Q327 282 347 247T405 191T499 171Q573 171 628 201T716 276T750 361L828 254Q816 213 787 166T712 77T601 7T452 -20Q346 -20 263 22T133 137T86 302Q86 388 118 454T214 566T370
634T580 658H769ZM347 1420Q347 1477 376 1523T454 1598T566 1626Q659 1626 721 1566T784 1420Q784 1363 756 1317T678 1245T566 1218Q472 1218 410 1276T347 1420ZM454 1420Q454 1376 485 1343T566 1309Q616 1309 646 1342T677 1420Q677 1466 647 1499T566 1533Q516
1533 485 1500T454 1420Z" />
<glyph unicode="&#xe6;" horiz-adv-x="1730" d="M737 183V713Q737 775 716 819T654 886T553 910Q489 910 442 889T370 832T345 753L104 771Q104 843 136 903T228 1008T370 1077T555 1102Q681 1102 774 1059T919 928T971 711V218L737 183ZM779 643L780 479H549Q472
479 420 455T341 392T314 307Q314 265 334 232T395 179T499 160Q547 160 596 178T688 224T755 283T782 343L899 194Q873 146 816 96T668 13T453 -21Q330 -21 245 20T116 136T72 311Q72 390 102 451T193 555T341 620T547 643H779ZM1254 -21Q1130 -21 1035 18T875
128T776 295T743 507V564Q743 683 776 781T872 952T1023 1063T1222 1102Q1329 1102 1412 1069T1553 971T1640 817T1670 615V475H853V642H1431V671Q1431 739 1410 793T1343 878T1222 910Q1158 910 1112 884T1035 810T989 700T974 564V507Q974 436 991 376T1043 269T1135
197T1271 171Q1382 171 1451 201T1575 263L1646 102Q1617 79 1563 51T1431 1T1254 -21Z" />
<glyph unicode="&#xe7;" horiz-adv-x="1069" d="M566 172Q625 172 672 195T749 261T782 358H1009Q1007 253 947 167T788 31T569 -20Q445 -20 353 22T200 140T109 313T78 523V558Q78 670 108 768T200 942T353 1059T568 1102Q698 1102 796 1051T950 908T1009 695H782Q779
755 753 803T679 881T565 910Q492 910 444 881T369 801T331 688T319 558V523Q319 456 330 393T368 281T444 202T566 172ZM460 -2H639L627 -58Q684 -68 731 -106T779 -231Q779 -282 758 -323T696 -393T593 -439T450 -455L443 -319Q482 -319 513 -310T562 -280T581
-228Q581 -197 565 -180T516 -154T429 -141L460 -2Z" />
<glyph unicode="&#xe8;" horiz-adv-x="1097" d="M601 -20Q481 -20 385 19T221 130T117 297T81 504V544Q81 671 118 774T221 950T377 1063T572 1102Q688 1102 775 1063T919 954T1005 786T1034 572V469H198V642H796V661Q794 726 771 783T699 875T571 910Q511 910
465 885T387 811T340 696T323 544V504Q323 433 342 373T400 267T492 197T615 171Q702 171 770 206T888 305L1015 182Q980 131 924 85T788 9T601 -20ZM484 1536L679 1235H478L211 1536H484Z" />
<glyph unicode="&#xe9;" horiz-adv-x="1097" d="M601 -20Q481 -20 385 19T221 130T117 297T81 504V544Q81 671 118 774T221 950T377 1063T572 1102Q688 1102 775 1063T919 954T1005 786T1034 572V469H198V642H796V661Q794 726 771 783T699 875T571 910Q511 910
465 885T387 811T340 696T323 544V504Q323 433 342 373T400 267T492 197T615 171Q702 171 770 206T888 305L1015 182Q980 131 924 85T788 9T601 -20ZM433 1235L628 1536H900L628 1235H433Z" />
<glyph unicode="&#xea;" horiz-adv-x="1097" d="M601 -20Q481 -20 385 19T221 130T117 297T81 504V544Q81 671 118 774T221 950T377 1063T572 1102Q688 1102 775 1063T919 954T1005 786T1034 572V469H198V642H796V661Q794 726 771 783T699 875T571 910Q511 910
465 885T387 811T340 696T323 544V504Q323 433 342 373T400 267T492 197T615 171Q702 171 770 206T888 305L1015 182Q980 131 924 85T788 9T601 -20ZM625 1536L902 1260V1249H707L554 1406L401 1249H210V1262L483 1536H625Z" />
<glyph unicode="&#xeb;" horiz-adv-x="1097" d="M601 -20Q481 -20 385 19T221 130T117 297T81 504V544Q81 671 118 774T221 950T377 1063T572 1102Q688 1102 775 1063T919 954T1005 786T1034 572V469H198V642H796V661Q794 726 771 783T699 875T571 910Q511 910
465 885T387 811T340 696T323 544V504Q323 433 342 373T400 267T492 197T615 171Q702 171 770 206T888 305L1015 182Q980 131 924 85T788 9T601 -20ZM198 1369Q198 1418 232 1451T322 1485Q379 1485 413 1452T447 1369Q447 1321 413 1288T322 1254Q266 1254 232
1287T198 1369ZM661 1368Q661 1417 695 1450T786 1484Q842 1484 876 1451T911 1368Q911 1320 877 1287T786 1253Q729 1253 695 1286T661 1368Z" />
<glyph unicode="&#xec;" horiz-adv-x="535" d="M385 1082V0H144V1082H385ZM197 1527L392 1226H191L-76 1527H197Z" />
<glyph unicode="&#xed;" horiz-adv-x="535" d="M385 1082V0H144V1082H385ZM146 1482L341 1783H613L341 1482H146Z" />
<glyph unicode="&#xee;" horiz-adv-x="535" d="M385 1082V0H144V1082H385ZM339 1527L616 1251V1240H421L268 1397L115 1240H-76V1253L197 1527H339Z" />
<glyph unicode="&#xef;" horiz-adv-x="535" d="M385 1082V0H144V1082H385ZM-88 1360Q-88 1409 -54 1442T36 1476Q93 1476 127 1443T161 1360Q161 1312 127 1279T36 1245Q-20 1245 -54 1278T-88 1360ZM375 1359Q375 1408 409 1441T500 1475Q556 1475 590 1442T625
1359Q625 1311 591 1278T500 1244Q443 1244 409 1277T375 1359Z" />
<glyph unicode="&#xf0;" horiz-adv-x="1188" d="M245 1389L320 1580Q491 1543 632 1462T876 1261T1034 985T1090 641V556Q1090 429 1053 323T950 140T793 22T594 -20Q485 -20 395 17T240 122T139 277T104 468Q104 582 135 674T226 833T368 936T553 972Q666 972
757 921T902 785T961 600L874 602Q874 631 858 663T808 724T725 769T608 787Q544 787 495 765T413 702T362 601T345 468Q345 411 362 358T411 263T491 197T598 172Q658 172 704 200T783 278T831 395T848 542V643Q848 810 799 935T666 1151T473 1299T245 1389ZM988
1406L437 1043L362 1150L914 1512L988 1406Z" />
<glyph unicode="&#xf1;" horiz-adv-x="1140" d="M363 851V0H122V1082H349L363 851ZM320 581L242 582Q243 697 274 793T362 958T498 1064T674 1102Q752 1102 815 1081T924 1011T994 887T1018 699V0H776V700Q776 778 754 823T689 888T583 908Q521 908 472 882T390
811T338 707T320 581ZM794 1524L941 1513Q941 1440 912 1383T833 1292T720 1259Q671 1259 637 1273T575 1305T518 1336T448 1350Q410 1350 384 1322T357 1247L209 1255Q209 1327 238 1385T317 1477T430 1511Q471 1511 504 1498T568 1466T631 1434T702 1420Q740
1420 767 1449T794 1524Z" />
<glyph unicode="&#xf2;" horiz-adv-x="1162" d="M78 529V552Q78 669 112 769T210 944T368 1060T580 1102Q699 1102 792 1061T951 945T1050 770T1084 552V529Q1084 412 1050 312T951 138T793 22T582 -20Q463 -20 370 21T211 137T112 312T78 529ZM319 552V529Q319
456 334 391T381 277T463 200T582 172Q649 172 698 200T780 277T827 391T843 529V552Q843 624 828 688T780 803T698 881T580 910Q512 910 463 882T381 803T334 689T319 552ZM506 1536L701 1235H500L233 1536H506Z" />
<glyph unicode="&#xf3;" horiz-adv-x="1162" d="M78 529V552Q78 669 112 769T210 944T368 1060T580 1102Q699 1102 792 1061T951 945T1050 770T1084 552V529Q1084 412 1050 312T951 138T793 22T582 -20Q463 -20 370 21T211 137T112 312T78 529ZM319 552V529Q319
456 334 391T381 277T463 200T582 172Q649 172 698 200T780 277T827 391T843 529V552Q843 624 828 688T780 803T698 881T580 910Q512 910 463 882T381 803T334 689T319 552ZM454 1235L649 1536H921L649 1235H454Z" />
<glyph unicode="&#xf4;" horiz-adv-x="1162" d="M78 529V552Q78 669 112 769T210 944T368 1060T580 1102Q699 1102 792 1061T951 945T1050 770T1084 552V529Q1084 412 1050 312T951 138T793 22T582 -20Q463 -20 370 21T211 137T112 312T78 529ZM319 552V529Q319
456 334 391T381 277T463 200T582 172Q649 172 698 200T780 277T827 391T843 529V552Q843 624 828 688T780 803T698 881T580 910Q512 910 463 882T381 803T334 689T319 552ZM647 1536L924 1260V1249H729L576 1406L423 1249H232V1262L505 1536H647Z" />
<glyph unicode="&#xf5;" horiz-adv-x="1162" d="M78 529V552Q78 669 112 769T210 944T368 1060T580 1102Q699 1102 792 1061T951 945T1050 770T1084 552V529Q1084 412 1050 312T951 138T793 22T582 -20Q463 -20 370 21T211 137T112 312T78 529ZM319 552V529Q319
456 334 391T381 277T463 200T582 172Q649 172 698 200T780 277T827 391T843 529V552Q843 624 828 688T780 803T698 881T580 910Q512 910 463 882T381 803T334 689T319 552ZM795 1524L942 1513Q942 1440 913 1383T834 1292T721 1259Q672 1259 638 1273T576 1305T519
1336T449 1350Q411 1350 385 1322T358 1247L210 1255Q210 1327 239 1385T318 1477T431 1511Q472 1511 505 1498T569 1466T632 1434T703 1420Q741 1420 768 1449T795 1524Z" />
<glyph unicode="&#xf6;" horiz-adv-x="1162" d="M78 529V552Q78 669 112 769T210 944T368 1060T580 1102Q699 1102 792 1061T951 945T1050 770T1084 552V529Q1084 412 1050 312T951 138T793 22T582 -20Q463 -20 370 21T211 137T112 312T78 529ZM319 552V529Q319
456 334 391T381 277T463 200T582 172Q649 172 698 200T780 277T827 391T843 529V552Q843 624 828 688T780 803T698 881T580 910Q512 910 463 882T381 803T334 689T319 552ZM220 1369Q220 1418 254 1451T344 1485Q401 1485 435 1452T469 1369Q469 1321 435 1288T344
1254Q288 1254 254 1287T220 1369ZM683 1368Q683 1417 717 1450T808 1484Q864 1484 898 1451T933 1368Q933 1320 899 1287T808 1253Q751 1253 717 1286T683 1368Z" />
<glyph unicode="&#xf7;" horiz-adv-x="1169" d="M1082 792V586H67V792H1082ZM437 1094Q437 1150 474 1187T578 1225Q644 1225 681 1188T719 1094Q719 1038 682 1001T578 964Q512 964 475 1001T437 1094ZM437 280Q437 336 474 373T578 411Q644 411 681 374T719
280Q719 225 682 188T578 150Q512 150 475 187T437 280Z" />
<glyph unicode="&#xf8;" horiz-adv-x="1158" d="M988 1213L325 -139H182L845 1213H988ZM78 529V552Q78 669 112 769T210 944T368 1060T580 1102Q699 1102 792 1061T951 945T1050 770T1084 552V529Q1084 412 1050 312T951 138T793 22T582 -20Q463 -20 370 21T211
137T112 312T78 529ZM319 552V529Q319 456 334 391T381 277T463 200T582 172Q649 172 698 200T780 277T827 391T843 529V552Q843 624 828 688T780 803T698 881T580 910Q512 910 463 882T381 803T334 689T319 552Z" />
<glyph unicode="&#xf9;" horiz-adv-x="1139" d="M775 255V1082H1017V0H789L775 255ZM809 480L890 482Q890 373 866 282T792 123T664 18T477 -20Q398 -20 332 3T219 74T145 199T119 383V1082H360V381Q360 322 374 283T412 219T468 185T536 175Q639 175 698 215T783
325T809 480ZM501 1536L696 1235H495L228 1536H501Z" />
<glyph unicode="&#xfa;" horiz-adv-x="1139" d="M775 255V1082H1017V0H789L775 255ZM809 480L890 482Q890 373 866 282T792 123T664 18T477 -20Q398 -20 332 3T219 74T145 199T119 383V1082H360V381Q360 322 374 283T412 219T468 185T536 175Q639 175 698 215T783
325T809 480ZM449 1235L644 1536H916L644 1235H449Z" />
<glyph unicode="&#xfb;" horiz-adv-x="1139" d="M775 255V1082H1017V0H789L775 255ZM809 480L890 482Q890 373 866 282T792 123T664 18T477 -20Q398 -20 332 3T219 74T145 199T119 383V1082H360V381Q360 322 374 283T412 219T468 185T536 175Q639 175 698 215T783
325T809 480ZM642 1536L919 1260V1249H724L571 1406L418 1249H227V1262L500 1536H642Z" />
<glyph unicode="&#xfc;" horiz-adv-x="1139" d="M775 255V1082H1017V0H789L775 255ZM809 480L890 482Q890 373 866 282T792 123T664 18T477 -20Q398 -20 332 3T219 74T145 199T119 383V1082H360V381Q360 322 374 283T412 219T468 185T536 175Q639 175 698 215T783
325T809 480ZM215 1369Q215 1418 249 1451T339 1485Q396 1485 430 1452T464 1369Q464 1321 430 1288T339 1254Q283 1254 249 1287T215 1369ZM678 1368Q678 1417 712 1450T803 1484Q859 1484 893 1451T928 1368Q928 1320 894 1287T803 1253Q746 1253 712 1286T678
1368Z" />
<glyph unicode="&#xfd;" horiz-adv-x="1003" d="M438 118L732 1082H990L556 -165Q541 -205 517 -252T455 -341T359 -410T221 -437Q189 -437 160 -432T104 -420L103 -236Q113 -237 127 -238T151 -239Q211 -239 251 -225T316 -178T360 -92L438 118ZM272 1082L529
272L572 18L405 -25L12 1082H272ZM394 1235L589 1536H861L589 1235H394Z" />
<glyph unicode="&#xfe;" horiz-adv-x="1169" d="M371 1536V-416H129V1536H371ZM1076 551V530Q1076 412 1049 312T968 137T836 21T656 -20Q555 -20 480 17T352 124T269 286T224 492V573Q237 692 268 789T352 956T478 1064T653 1102Q756 1102 835 1063T967 951T1048
777T1076 551ZM835 530V551Q835 626 821 690T777 804T701 880T589 908Q525 908 479 887T402 827T354 739T330 629V435Q338 380 356 333T405 249T481 193T591 172Q656 172 702 200T777 277T821 392T835 530Z" />
<glyph unicode="&#xff;" horiz-adv-x="1003" d="M438 118L732 1082H990L556 -165Q541 -205 517 -252T455 -341T359 -410T221 -437Q189 -437 160 -432T104 -420L103 -236Q113 -237 127 -238T151 -239Q211 -239 251 -225T316 -178T360 -92L438 118ZM272 1082L529
272L572 18L405 -25L12 1082H272ZM160 1369Q160 1418 194 1451T284 1485Q341 1485 375 1452T409 1369Q409 1321 375 1288T284 1254Q228 1254 194 1287T160 1369ZM623 1368Q623 1417 657 1450T748 1484Q804 1484 838 1451T873 1368Q873 1320 839 1287T748 1253Q691
1253 657 1286T623 1368Z" />
<glyph unicode="&#x2013;" horiz-adv-x="1315" d="M1178 817V624H156V817H1178Z" />
<glyph unicode="&#x2014;" horiz-adv-x="1578" d="M1484 817V624H123V817H1484Z" />
<glyph unicode="&#x2018;" horiz-adv-x="447" d="M101 1062V1198Q101 1261 123 1328T186 1457T279 1563L399 1488Q359 1425 334 1356T308 1199V1062H101Z" />
<glyph unicode="&#x2019;" horiz-adv-x="442" d="M353 1536V1395Q353 1332 331 1265T268 1136T176 1029L55 1105Q96 1167 121 1236T147 1393V1536H353Z" />
<glyph unicode="&#x201a;" horiz-adv-x="462" d="M353 207L352 73Q352 10 330 -57T267 -186T175 -293L53 -218Q95 -155 118 -86T141 71V207H353Z" />
<glyph unicode="&#x201c;" horiz-adv-x="779" d="M109 1062V1198Q109 1261 131 1328T194 1457T287 1563L407 1488Q367 1425 342 1356T316 1199V1062H109ZM437 1062V1198Q437 1261 459 1328T522 1457T615 1563L735 1488Q695 1425 670 1356T644 1199V1062H437Z" />
<glyph unicode="&#x201d;" horiz-adv-x="787" d="M366 1536V1395Q366 1332 344 1265T281 1136T189 1029L68 1105Q109 1167 134 1236T160 1393V1536H366ZM693 1536V1395Q693 1332 671 1265T608 1136T516 1029L395 1105Q436 1167 461 1236T487 1393V1536H693Z" />
<glyph unicode="&#x201e;" horiz-adv-x="768" d="M353 254L352 73Q352 7 331 -64T270 -201T179 -312L53 -237Q95 -169 118 -95T141 71V254H353ZM673 254L672 73Q672 7 650 -64T587 -201T495 -312L369 -237Q411 -169 436 -95T461 71V254H673Z" />
<glyph unicode="&#x2022;" horiz-adv-x="716" d="M138 730V769Q138 863 197 923T359 983Q462 983 522 923T582 769V730Q582 637 523 578T360 518Q258 518 198 577T138 730Z" />
<glyph unicode="&#x2039;" horiz-adv-x="628" d="M560 937L309 534L108 535V548L395 937H560ZM309 543L560 139H395L108 529V542L309 543Z" />
<glyph unicode="&#x203a;" horiz-adv-x="617" d="M85 139L336 542L538 541V528L251 139H85ZM85 936H251L538 547V534L336 533L85 936Z" />
</font>
</defs>
</svg>
